<?xml version="1.0" standalone="no"?>
<!DOCTYPE svg PUBLIC "-//W3C//DTD SVG 1.1//EN" "http://www.w3.org/Graphics/SVG/1.1/DTD/svg11.dtd" >
<svg xmlns="http://www.w3.org/2000/svg" xmlns:xlink="http://www.w3.org/1999/xlink" version="1.1">
<metadata>
Created by FontForge 20170731 at Thu Jan 23 19:30:18 2014
 By Aleksey,,,
Copyright (c) 2013 Monotype Imaging Inc. All rights reserved.
</metadata>
<defs>
<font id="FuturaStd-Light" horiz-adv-x="620" >
  <font-face 
    font-family="Futura Std Light"
    font-weight="300"
    font-stretch="normal"
    units-per-em="1000"
    panose-1="2 11 4 2 2 2 4 2 3 3"
    ascent="825"
    descent="-175"
    x-height="462"
    cap-height="754"
    bbox="-175 -302 1127 971"
    underline-thickness="50"
    underline-position="-200"
    unicode-range="U+000D-FB02"
  />
<missing-glyph horiz-adv-x="512" 
d="M0 718h512v-718h-512v718zM50 50h412v617h-412v-617zM383 478q0 -60 -46 -103q-7 -7 -20.5 -19.5t-17 -16t-11 -11.5t-8.5 -13t-4.5 -12t-3.5 -18t-0.5 -21.5t-0.5 -29.5h-46l-2 19q0 87 54 133q55 46 55 88q0 36 -22.5 60.5t-53.5 24.5q-70 0 -82 -95l-50 8
q6 69 42.5 103t92.5 34q55 0 89.5 -36t34.5 -95zM222 117v67h56v-67h-56z" />
    <glyph glyph-name="fi" unicode="fi" horiz-adv-x="475" 
d="M238 831v-41q-30 6 -37 6q-46 0 -62.5 -32.5t-16.5 -97.5v-204h116v-42h-116v-420h-45v420h-51v42h51v213q0 75 18 107q32 56 103 56q23 0 40 -7zM399 616q0 -17 -12 -29t-29 -12t-29 12t-12 29t12 29t29 12t29 -12t12 -29zM335 0v462h45v-462h-45z" />
    <glyph glyph-name="fl" unicode="fl" horiz-adv-x="439" 
d="M238 831v-41q-30 6 -37 6q-46 0 -62.5 -32.5t-16.5 -97.5v-204h116v-42h-116v-420h-45v420h-51v42h51v213q0 75 18 107q32 56 103 56q23 0 40 -7zM317 0v825h45v-825h-45z" />
    <glyph glyph-name=".notdef" horiz-adv-x="512" 
d="M0 718h512v-718h-512v718zM50 50h412v617h-412v-617zM383 478q0 -60 -46 -103q-7 -7 -20.5 -19.5t-17 -16t-11 -11.5t-8.5 -13t-4.5 -12t-3.5 -18t-0.5 -21.5t-0.5 -29.5h-46l-2 19q0 87 54 133q55 46 55 88q0 36 -22.5 60.5t-53.5 24.5q-70 0 -82 -95l-50 8
q6 69 42.5 103t92.5 34q55 0 89.5 -36t34.5 -95zM222 117v67h56v-67h-56z" />
    <glyph glyph-name=".null" horiz-adv-x="0" 
 />
    <glyph glyph-name=".null" horiz-adv-x="0" 
 />
    <glyph glyph-name="nonmarkingreturn" horiz-adv-x="333" 
 />
    <glyph glyph-name="CR" unicode="&#xd;" horiz-adv-x="310" 
 />
    <glyph glyph-name="space" unicode=" " horiz-adv-x="310" 
 />
    <glyph glyph-name="exclam" unicode="!" horiz-adv-x="320" 
d="M136 143v611h48v-611h-48zM201 31q0 -17 -12 -29t-29 -12t-29 12t-12 29t12 29t29 12t29 -12t12 -29z" />
    <glyph glyph-name="quotedbl" unicode="&#x22;" horiz-adv-x="278" 
d="M68 514l-10 240h48l-11 -240h-27zM182 514l-10 240h48l-11 -240h-27z" />
    <glyph glyph-name="numbersign" unicode="#" 
d="M217 486l32 212h50l-32 -212h136l32 212h50l-33 -212h110v-48h-118l-26 -162h118v-48h-126l-37 -228h-46l36 228h-135l-33 -228h-48l33 228h-121v48h128l23 162h-123v48h130zM259 438l-24 -162h136l24 162h-136z" />
    <glyph glyph-name="dollar" unicode="$" 
d="M302 764v105h45v-107q48 -6 89 -33.5t64 -70.5l-37 -30q-47 78 -116 88v-300q7 -4 31.5 -16t40 -20t36.5 -22t35 -28q47 -47 47 -120q0 -79 -55.5 -141t-134.5 -77v-113h-45v111q-78 2 -135 45t-84 118l41 19q23 -60 68 -97t104 -37h6v346q-30 15 -37.5 18.5t-33.5 18
t-35 22.5t-26.5 24t-24 30t-13 34t-6.5 42q0 80 48.5 132.5t127.5 58.5zM302 437v279q-52 0 -90 -42.5t-38 -98.5q0 -27 10 -48t33 -38.5t37.5 -26t47.5 -25.5zM347 362v-322q60 15 101 63t41 111q0 29 -12 52t-37 42t-42.5 28.5t-50.5 25.5z" />
    <glyph glyph-name="percent" unicode="%" horiz-adv-x="664" 
d="M92 1l446 770l33 -17l-448 -771zM332 612q0 -63 -44 -105t-108 -42q-65 0 -108.5 42.5t-43.5 104.5q0 65 43.5 107t108.5 42q64 0 108 -42.5t44 -106.5zM180 507q46 0 78 31t32 74q0 45 -33 76t-78 31q-43 0 -76 -31.5t-33 -75.5q0 -43 32 -74t78 -31zM636 140
q0 -63 -44 -105t-108 -42q-65 0 -108.5 42.5t-43.5 104.5q0 65 43.5 107t108.5 42q63 0 107.5 -42t44.5 -107zM484 35q46 0 78 31t32 74q0 45 -33 76t-78 31q-43 0 -76 -31.5t-33 -75.5q0 -43 32 -74t78 -31z" />
    <glyph glyph-name="ampersand" unicode="&#x26;" horiz-adv-x="642" 
d="M456 628q0 -46 -30 -89.5t-111 -96.5l186 -254l96 105l37 -20l-105 -120l115 -153h-52l-95 125q-165 -140 -278 -140q-82 0 -139.5 58t-57.5 141q0 73 51.5 135.5t177.5 138.5q-47 62 -63 97t-16 68q0 60 44 102.5t103 42.5q57 0 97 -40.5t40 -99.5zM287 479
q10 8 25.5 19t23.5 17q37 28 54.5 53t17.5 61q0 39 -27 66.5t-66 27.5t-67 -31.5t-28 -73.5q0 -18 7 -37.5t13 -30.5t24 -37t23 -34zM219 30q94 0 250 133l-190 257l-45 -30q-79 -52 -103 -76q-61 -61 -61 -125q0 -67 43 -113t106 -46z" />
    <glyph glyph-name="quotesingle" unicode="'" horiz-adv-x="222" 
d="M97 514l-10 240h48l-11 -240h-27z" />
    <glyph glyph-name="parenleft" unicode="(" horiz-adv-x="240" 
d="M137 780l37 -26q-63 -222 -63 -459q0 -215 63 -447l-37 -25q-32 81 -51.5 213.5t-19.5 259.5q0 138 19.5 271t51.5 213z" />
    <glyph glyph-name="parenright" unicode=")" horiz-adv-x="240" 
d="M66 754l37 26q32 -78 51.5 -210t19.5 -274q0 -127 -19.5 -261.5t-51.5 -211.5l-37 25q63 234 63 447q0 235 -63 459z" />
    <glyph glyph-name="asterisk" unicode="*" horiz-adv-x="619" 
d="M289 604l-4 150h49l-4 -150l142 50l15 -47l-144 -43l92 -119l-40 -29l-85 124l-86 -124l-39 28l91 120l-144 43l15 47z" />
    <glyph glyph-name="plus" unicode="+" 
d="M286 280v232h48v-232h232v-48h-232v-232h-48v232h-232v48h232z" />
    <glyph glyph-name="comma" unicode="," horiz-adv-x="310" 
d="M85 -155l68 229l45 -14l-83 -226z" />
    <glyph glyph-name="hyphen" unicode="-" horiz-adv-x="190" 
d="M0 342h190v-45h-190v45z" />
    <glyph glyph-name="period" unicode="." horiz-adv-x="310" 
d="M196 31q0 -17 -12 -29t-29 -12t-29 12t-12 29t12 29t29 12t29 -12t12 -29z" />
    <glyph glyph-name="slash" unicode="/" horiz-adv-x="640" 
d="M35 -123l535 948l35 -18l-533 -949z" />
    <glyph glyph-name="zero" unicode="0" 
d="M584 382q0 -61 -16 -126t-47.5 -126t-86.5 -100.5t-124 -39.5q-67 0 -121.5 37.5t-86.5 97t-49 126.5t-17 131q0 60 16.5 124.5t48.5 123.5t86.5 96.5t122.5 37.5q87 0 151.5 -62.5t93.5 -147.5t29 -172zM310 35q72 0 125 56t77 132.5t24 158.5q0 50 -13.5 105.5
t-39.5 109t-71.5 88t-102.5 34.5q-55 0 -100 -34.5t-71 -87t-40 -109t-14 -106.5q0 -60 14.5 -119.5t41.5 -111t71.5 -84t98.5 -32.5z" />
    <glyph glyph-name="one" unicode="1" 
d="M212 754h144v-754h-48v709h-119z" />
    <glyph glyph-name="two" unicode="2" 
d="M537 543q0 -95 -96 -203l-265 -295h358v-45h-465l281 309q47 52 72 83.5t46 73.5t21 80q0 75 -53 124t-125 49q-76 0 -127 -48.5t-51 -125.5v-4h-48q3 115 75 169t151 54q94 0 160 -63t66 -158z" />
    <glyph glyph-name="three" unicode="3" 
d="M510 570q0 -58 -30 -105t-83 -70q55 -21 89.5 -71t34.5 -112q0 -94 -63.5 -158t-157.5 -64q-88 0 -148.5 55t-60.5 140h48q6 -67 49.5 -108.5t110.5 -41.5q71 0 122.5 52t51.5 122q0 71 -49 116t-122 45v45q71 2 115.5 46.5t44.5 110.5q0 61 -44 104t-105 43
q-65 0 -103.5 -38.5t-42.5 -104.5h-48q6 87 57 137.5t138 50.5q81 0 138.5 -56.5t57.5 -137.5z" />
    <glyph glyph-name="four" unicode="4" 
d="M12 149l449 631h6v-592h106v-45h-106v-143h-48v143h-407v6zM413 634l-313 -440v-6h319v446h-6z" />
    <glyph glyph-name="five" unicode="5" 
d="M244 754h287v-45h-252l-63 -204q26 8 57 8q107 0 181.5 -74t74.5 -183q0 -114 -78.5 -190t-193.5 -76q-67 0 -127 33t-96 92l44 18q29 -45 78.5 -71.5t101.5 -26.5q94 0 158.5 63t64.5 159q0 88 -65 149.5t-155 61.5q-59 0 -115 -34z" />
    <glyph glyph-name="six" unicode="6" 
d="M95 416l245 348l39 -29l-166 -235l2 -2q49 20 100 20q107 0 185 -77.5t78 -187.5q0 -99 -74.5 -181t-194.5 -82q-109 0 -188 75.5t-79 187.5q0 87 53 163zM310 35q90 0 155 64.5t65 154.5t-65.5 154.5t-155.5 64.5q-88 0 -153.5 -63.5t-65.5 -155.5q0 -91 64.5 -155
t155.5 -64z" />
    <glyph glyph-name="seven" unicode="7" 
d="M70 754h547l-540 -762l-37 29l488 688h-458v45z" />
    <glyph glyph-name="eight" unicode="8" 
d="M512 565q0 -54 -28.5 -101t-77.5 -71q123 -61 123 -196q0 -87 -64 -147t-155 -60t-155 60t-64 147q0 135 123 196q-49 24 -77.5 71t-28.5 101q0 85 58.5 142t143.5 57t143.5 -57t58.5 -142zM310 414q63 0 108.5 44.5t45.5 107.5t-46 108t-109 45q-62 0 -107.5 -44.5
t-45.5 -108.5t45.5 -108t108.5 -44zM310 35q70 0 120.5 49t50.5 118t-50.5 118t-121.5 49q-68 0 -119 -48.5t-51 -118.5q0 -69 50.5 -118t120.5 -49z" />
    <glyph glyph-name="nine" unicode="9" 
d="M578 497q0 -83 -55 -161l-243 -344l-39 29l167 235l-2 2q-49 -20 -101 -20q-109 0 -186 79t-77 185q0 110 80 186t189 76q114 0 190.5 -77t76.5 -190zM311 283q91 0 155 64t64 154t-64.5 154t-155.5 64q-88 0 -154 -63.5t-66 -154.5q0 -89 65 -153.5t156 -64.5z" />
    <glyph glyph-name="colon" unicode=":" horiz-adv-x="310" 
d="M196 431q0 -17 -12 -29t-29 -12t-29 12t-12 29t12 29t29 12t29 -12t12 -29zM196 31q0 -17 -12 -29t-29 -12t-29 12t-12 29t12 29t29 12t29 -12t12 -29z" />
    <glyph glyph-name="semicolon" unicode=";" horiz-adv-x="310" 
d="M202 431q0 -17 -12 -29t-29 -12t-29 12t-12 29t12 29t29 12t29 -12t12 -29zM85 -155l68 229l45 -14l-83 -226z" />
    <glyph glyph-name="less" unicode="&#x3c;" 
d="M54 283l512 223v-46l-460 -204l460 -215v-46l-512 235v53z" />
    <glyph glyph-name="equal" unicode="=" 
d="M54 365h512v-48h-512v48zM54 195h512v-48h-512v48z" />
    <glyph glyph-name="greater" unicode="&#x3e;" 
d="M54 460v46l512 -223v-53l-512 -235v46l460 215z" />
    <glyph glyph-name="question" unicode="?" horiz-adv-x="491" 
d="M425 584q0 -72 -39 -115.5t-139 -66.5q-59 -14 -85 -39t-26 -69q0 -47 31.5 -77t80.5 -30q47 0 76.5 33t29.5 83h48v-9q0 -62 -42 -107t-114 -45q-66 0 -112 43t-46 106q0 62 37.5 99.5t115.5 56.5q76 18 106 47t30 88q0 60 -38 98.5t-95 38.5t-93.5 -36.5t-36.5 -91.5
q0 -32 5 -52h-46q-7 42 -7 64q0 68 52 114.5t127 46.5q79 0 129.5 -50t50.5 -130zM284 31q0 -17 -12 -29t-29 -12t-29 12t-12 29t12 29t29 12t29 -12t12 -29z" />
    <glyph glyph-name="at" unicode="@" horiz-adv-x="800" 
d="M760 441q0 -114 -73.5 -202t-159.5 -88q-58 0 -75 49q-58 -49 -130 -49q-60 0 -96.5 39.5t-36.5 107.5q0 73 29.5 143.5t86.5 118.5t126 48q76 0 120 -67l15 47h44l-100 -315q-12 -38 -12 -48q0 -32 43 -32q60 0 118.5 84t58.5 168q0 115 -89 196t-212 81
q-136 0 -235.5 -103t-99.5 -246q0 -139 101 -240t236 -101q87 0 160.5 36t112.5 100h56q-44 -83 -131.5 -130.5t-197.5 -47.5q-158 0 -268.5 112.5t-110.5 277.5q0 157 110 270.5t265 113.5q147 0 246 -92.5t99 -230.5zM332 193q53 0 93 39t53 80l47 147q2 5 2 14
q0 28 -28 60.5t-77 32.5q-72 0 -131.5 -88t-59.5 -174q0 -47 28.5 -79t72.5 -32z" />
    <glyph glyph-name="A" unicode="A" horiz-adv-x="641" 
d="M5 0l316 779l315 -779h-49l-101 248h-331l-101 -248h-49zM321 657l-148 -364h295z" />
    <glyph glyph-name="B" unicode="B" horiz-adv-x="565" 
d="M81 754h156q101 0 152 -45q62 -55 62 -155q0 -106 -87 -154q71 -15 113.5 -66.5t42.5 -123.5q0 -110 -87 -169q-59 -41 -147 -41h-205v754zM129 412h119q80 0 127 54q28 33 28 95q0 83 -62 124q-37 24 -123 24h-89v-297zM129 45h134q83 0 125 23q38 21 61 59t23 81
q0 42 -20 79.5t-62 57.5q-48 22 -135 22h-126v-322z" />
    <glyph glyph-name="C" unicode="C" horiz-adv-x="739" 
d="M680 666v-66q-44 54 -113.5 86.5t-139.5 32.5q-140 0 -241.5 -103.5t-101.5 -243.5q0 -146 118 -248q104 -89 225 -89q67 0 139 32.5t114 82.5v-66q-115 -94 -251 -94q-159 0 -276 114t-117 272q0 160 116.5 274t277.5 114q142 0 250 -98z" />
    <glyph glyph-name="D" unicode="D" horiz-adv-x="652" 
d="M81 754h142q94 0 164.5 -26t127.5 -87q102 -109 102 -265q0 -152 -102 -262q-105 -114 -292 -114h-142v754zM129 45h93q163 0 256 100q91 97 91 231q0 140 -95 237q-53 53 -112.5 74.5t-139.5 21.5h-93v-664z" />
    <glyph glyph-name="E" unicode="E" horiz-adv-x="507" 
d="M81 754h360v-45h-312v-274h304v-45h-304v-345h312v-45h-360v754z" />
    <glyph glyph-name="F" unicode="F" horiz-adv-x="444" 
d="M81 754h304v-45h-256v-274h249v-45h-249v-390h-48v754z" />
    <glyph glyph-name="G" unicode="G" horiz-adv-x="824" 
d="M756 588l-39 -31q-110 162 -291 162q-137 0 -239.5 -103t-102.5 -239q0 -140 101 -241t241 -101q113 0 211 74q98 75 103 209h-270v45h318v-16q0 -84 -23 -146.5t-83 -114.5q-113 -96 -259 -96q-156 0 -271.5 114t-115.5 270q0 162 115.5 276t277.5 114q196 0 327 -176z
" />
    <glyph glyph-name="H" unicode="H" horiz-adv-x="716" 
d="M81 0v754h48v-320h458v320h48v-754h-48v389h-458v-389h-48z" />
    <glyph glyph-name="I" unicode="I" horiz-adv-x="210" 
d="M81 0v754h48v-754h-48z" />
    <glyph glyph-name="J" unicode="J" horiz-adv-x="218" 
d="M89 9v745h48v-745q0 -82 -31 -124.5t-102 -42.5q-41 0 -74 22t-51 60l36 27q13 -28 38.5 -46t54.5 -18q42 0 61.5 29t19.5 93z" />
    <glyph glyph-name="K" unicode="K" horiz-adv-x="569" 
d="M81 0v754h48v-352l358 352h64l-369 -363l392 -391h-63l-362 360l-20 -20v-340h-48z" />
    <glyph glyph-name="L" unicode="L" horiz-adv-x="327" 
d="M81 0v754h48v-709h192v-45h-240z" />
    <glyph glyph-name="M" unicode="M" horiz-adv-x="897" 
d="M171 779l277 -686l278 686l162 -779h-46l-129 624h-2l-263 -649l-262 649h-2l-129 -624h-46z" />
    <glyph glyph-name="N" unicode="N" horiz-adv-x="843" 
d="M81 0v764l633 -668v658h48v-779l-633 673v-648h-48z" />
    <glyph glyph-name="O" unicode="O" horiz-adv-x="854" 
d="M818 377q0 -158 -115.5 -272.5t-275.5 -114.5q-159 0 -275 114t-116 273q0 160 115.5 273.5t275.5 113.5q157 0 274 -113t117 -274zM427 35q138 0 240.5 100.5t102.5 241.5t-102 241.5t-242 100.5q-138 0 -240 -100.5t-102 -241.5q0 -140 101.5 -241t241.5 -101z" />
    <glyph glyph-name="P" unicode="P" horiz-adv-x="472" 
d="M81 754h151q88 0 137 -38q76 -59 76 -161q0 -22 -4 -44t-18 -51t-36.5 -50.5t-65 -36.5t-97.5 -15h-95v-358h-48v754zM129 403h97q83 0 127 45.5t44 108.5q0 70 -45 112q-42 40 -138 40h-85v-306z" />
    <glyph glyph-name="Q" unicode="Q" horiz-adv-x="854" 
d="M818 380q0 -147 -110 -273l99 -107h-65l-68 80q-109 -90 -247 -90q-162 0 -276.5 113t-114.5 274q0 162 116.5 274.5t275.5 112.5q158 0 274 -113t116 -271zM430 35q107 0 210 79l-188 195h68l153 -166q97 103 97 228q0 146 -100.5 247t-242.5 101q-136 0 -239.5 -99.5
t-103.5 -242.5q0 -142 102 -242t244 -100z" />
    <glyph glyph-name="R" unicode="R" horiz-adv-x="488" 
d="M81 754h102q90 0 137 -22q103 -52 103 -178q0 -95 -57.5 -146t-155.5 -51h-3l247 -357h-55l-246 357h-24v-357h-48v754zM129 402h66q64 0 94 14t56 45q30 36 30 95q0 37 -15 70t-38 50q-31 23 -62.5 28t-101.5 5h-29v-307z" />
    <glyph glyph-name="S" unicode="S" horiz-adv-x="544" 
d="M464 658l-34 -28q-55 89 -153 89q-59 0 -100.5 -41t-41.5 -103q0 -73 97 -122q30 -15 175 -90q13 -7 26 -17t30 -27.5t27.5 -45.5t10.5 -61q0 -96 -72 -159t-164 -63q-77 0 -136 44t-86 118l42 19q54 -136 182 -136q76 0 131 52.5t55 125.5q0 78 -102 128q-16 8 -178 93
q-86 44 -86 139q0 85 54 138t139 53q57 0 107 -28.5t77 -77.5z" />
    <glyph glyph-name="T" unicode="T" horiz-adv-x="450" 
d="M6 754h438v-45h-195v-709h-48v709h-195v45z" />
    <glyph glyph-name="U" unicode="U" horiz-adv-x="660" 
d="M74 263v491h48v-474q0 -98 24 -148q22 -45 74.5 -71t109.5 -26q56 0 105 24t71 59q19 31 25.5 67.5t6.5 104.5v464h48v-478q0 -60 -5 -92.5t-21 -66.5q-25 -54 -89 -90.5t-141 -36.5q-80 0 -142 37q-64 37 -89 91t-25 145z" />
    <glyph glyph-name="V" unicode="V" horiz-adv-x="555" 
d="M5 754h48l224 -644h2l223 644h48l-274 -779z" />
    <glyph glyph-name="W" unicode="W" horiz-adv-x="1105" 
d="M272 106l282 686l282 -686l209 648h48l-254 -779l-288 697l-287 -697l-252 779h48z" />
    <glyph glyph-name="X" unicode="X" horiz-adv-x="494" 
d="M218 385l-198 369h53l173 -324l173 324h53l-197 -369l207 -385h-52l-184 341l-182 -341h-52z" />
    <glyph glyph-name="Y" unicode="Y" horiz-adv-x="559" 
d="M255 322l-251 432h53l222 -382l222 382h53l-251 -432v-322h-48v322z" />
    <glyph glyph-name="Z" unicode="Z" horiz-adv-x="568" 
d="M56 754h500l-460 -709h447v-45h-531l460 709h-416v45z" />
    <glyph glyph-name="bracketleft" unicode="[" horiz-adv-x="300" 
d="M65 754h170v-51h-122v-855h122v-51h-170v957z" />
    <glyph glyph-name="backslash" unicode="\" horiz-adv-x="640" 
d="M35 807l35 18l535 -806l-37 -19z" />
    <glyph glyph-name="bracketright" unicode="]" horiz-adv-x="300" 
d="M65 754h170v-957h-170v51h122v855h-122v51z" />
    <glyph glyph-name="asciicircum" unicode="^" 
d="M54 301l230 453h52l230 -453h-46l-210 408l-209 -408h-47z" />
    <glyph glyph-name="underscore" unicode="_" horiz-adv-x="500" 
d="M0 -75h500v-50h-500v50z" />
    <glyph glyph-name="grave" unicode="`" horiz-adv-x="313" 
d="M75 695l61 19l101 -147l-38 -17z" />
    <glyph glyph-name="a" unicode="a" horiz-adv-x="560" 
d="M436 382h2v80h45v-462h-45v83h-2q-26 -43 -74.5 -68t-101.5 -25q-100 0 -164 68.5t-64 175.5q0 104 62 171t164 67q55 0 102.5 -24t75.5 -66zM259 32q82 0 132 58t50 149q0 86 -53 138.5t-133 52.5q-75 0 -126.5 -58t-51.5 -138q0 -86 52 -144t130 -58z" />
    <glyph glyph-name="b" unicode="b" horiz-adv-x="560" 
d="M77 0v825h45v-443h2q27 41 74.5 65.5t103.5 24.5q100 0 163 -66.5t63 -171.5t-63.5 -174.5t-164.5 -69.5q-55 0 -103 25t-73 68h-2v-83h-45zM301 32q80 0 131 58t51 144q0 83 -53 139.5t-128 56.5q-82 0 -132.5 -54.5t-50.5 -142.5q0 -89 51.5 -145t130.5 -56z" />
    <glyph glyph-name="c" unicode="c" horiz-adv-x="477" 
d="M431 415v-60q-69 75 -163 75q-79 0 -135 -59t-56 -139q0 -82 56 -141t134 -59q99 0 170 83v-61q-70 -64 -168 -64q-101 0 -169 69.5t-68 172.5q0 102 69 171t169 69q92 0 161 -57z" />
    <glyph glyph-name="d" unicode="d" horiz-adv-x="560" 
d="M438 382v443h45v-825h-45v83h-2q-25 -42 -73 -67.5t-103 -25.5q-101 0 -164.5 68.5t-63.5 175.5q0 104 62 171t164 67q55 0 102.5 -24t75.5 -66h2zM259 32q82 0 132 58t50 149q0 86 -53 138.5t-133 52.5q-74 0 -126 -58.5t-52 -137.5q0 -86 52 -144t130 -58z" />
    <glyph glyph-name="e" unicode="e" horiz-adv-x="510" 
d="M478 227h-401v-6q0 -84 52 -136.5t133 -52.5q53 0 95.5 28t67.5 77l38 -22q-67 -125 -207 -125q-97 0 -160.5 69t-63.5 173q0 103 64 171.5t160 68.5q99 0 160.5 -68.5t61.5 -176.5zM77 269h356q-8 68 -58 114.5t-119 46.5t-121.5 -48.5t-57.5 -112.5z" />
    <glyph glyph-name="f" unicode="f" horiz-adv-x="240" 
d="M238 831v-41q-30 6 -37 6q-46 0 -62.5 -32.5t-16.5 -97.5v-204h116v-42h-116v-420h-45v420h-51v42h51v213q0 75 18 107q32 56 103 56q23 0 40 -7z" />
    <glyph glyph-name="g" unicode="g" horiz-adv-x="567" 
d="M443 382h2v80h45v-448q0 -100 -27 -156q-27 -55 -80.5 -88t-122.5 -33q-97 0 -160 53.5t-68 144.5h45q4 -72 55.5 -114t123.5 -42q88 0 138.5 57.5t50.5 175.5v68h-2q-31 -42 -79.5 -66t-100.5 -24q-98 0 -161 71.5t-63 170.5q0 103 66 171.5t164 68.5q108 0 174 -90z
M266 32q82 0 132 58t50 149q0 86 -53 138.5t-133 52.5q-74 0 -126 -58.5t-52 -137.5q0 -86 52 -144t130 -58z" />
    <glyph glyph-name="h" unicode="h" horiz-adv-x="490" 
d="M77 0v825h45v-435h2q20 39 56 60.5t81 21.5q79 0 115.5 -46t36.5 -142v-284h-45v285q0 77 -24.5 111t-86.5 34q-135 0 -135 -196v-234h-45z" />
    <glyph glyph-name="i" unicode="i" horiz-adv-x="234" 
d="M158 616q0 -17 -12 -29t-29 -12t-29 12t-12 29t12 29t29 12t29 -12t12 -29zM94 0v462h45v-462h-45z" />
    <glyph glyph-name="j" unicode="j" horiz-adv-x="234" 
d="M158 616q0 -17 -12 -29t-29 -12t-29 12t-12 29t12 29t29 12t29 -12t12 -29zM94 -270v732h45v-732h-45z" />
    <glyph glyph-name="k" unicode="k" horiz-adv-x="427" 
d="M77 0v825h45v-559l190 196h58l-194 -200l259 -262h-59l-229 231l-25 -26v-205h-45z" />
    <glyph glyph-name="l" unicode="l" horiz-adv-x="199" 
d="M77 0v825h45v-825h-45z" />
    <glyph glyph-name="m" unicode="m" horiz-adv-x="725" 
d="M370 388q17 37 51.5 60.5t83.5 23.5q77 0 110 -44.5t33 -132.5v-295h-45v301q0 69 -23 99t-76 30q-62 0 -90.5 -44.5t-28.5 -115.5v-270h-45v290q0 72 -25 106t-78 34q-60 0 -87.5 -48.5t-27.5 -122.5v-259h-45v462h45v-58h2q15 32 47 50t69 18q93 0 130 -84z" />
    <glyph glyph-name="n" unicode="n" horiz-adv-x="490" 
d="M413 283v-283h-45v285q0 73 -22.5 109t-88.5 36q-135 0 -135 -197v-233h-45v462h45v-72h2q20 39 56 60.5t81 21.5q83 0 117.5 -47.5t34.5 -141.5z" />
    <glyph glyph-name="o" unicode="o" horiz-adv-x="547" 
d="M515 231q0 -102 -70 -171.5t-173 -69.5q-100 0 -170 70.5t-70 169.5q0 101 70 171.5t170 70.5q102 0 172.5 -69.5t70.5 -171.5zM269 32q86 0 143.5 57t57.5 141q0 85 -57.5 142.5t-144.5 57.5q-80 0 -135.5 -59t-55.5 -141q0 -81 56 -139.5t136 -58.5z" />
    <glyph glyph-name="p" unicode="p" horiz-adv-x="560" 
d="M528 227q0 -104 -62 -170.5t-164 -66.5q-55 0 -102 23t-76 67h-2v-350h-45v732h45v-83h2q22 38 70 65.5t106 27.5q101 0 164.5 -69t63.5 -176zM303 32q77 0 128.5 55.5t51.5 138.5q0 87 -51.5 145.5t-131.5 58.5q-79 0 -130 -58t-51 -151q0 -82 51 -135.5t133 -53.5z" />
    <glyph glyph-name="q" unicode="q" horiz-adv-x="560" 
d="M436 379h2v83h45v-732h-45v350h-2q-28 -44 -75.5 -67t-102.5 -23q-101 0 -163.5 65.5t-62.5 170.5q0 107 63.5 176.5t164.5 69.5q55 0 103 -25t73 -68zM261 32q77 0 128.5 56t51.5 138q0 87 -51.5 145.5t-131.5 58.5t-130.5 -59t-50.5 -150q0 -82 51 -135.5t133 -53.5z
" />
    <glyph glyph-name="r" unicode="r" horiz-adv-x="278" 
d="M273 461l-24 -40q-16 9 -32 9q-56 0 -75.5 -44.5t-19.5 -130.5v-255h-45v462h45v-60h2q31 70 100 70q22 0 49 -11z" />
    <glyph glyph-name="s" unicode="s" horiz-adv-x="375" 
d="M310 398l-39 -20q-24 52 -81 52q-30 0 -54.5 -21.5t-24.5 -50.5q0 -33 23 -50t70 -34q33 -12 48.5 -19.5t39 -23.5t34 -40t10.5 -57q0 -63 -43 -103.5t-106 -40.5q-58 0 -101.5 33t-57.5 89l44 14q30 -94 115 -94q44 0 74 30t30 74q0 12 -3 22t-6 17.5t-12 15t-12.5 11
t-17 9.5t-16 7t-18.5 7l-16 6q-58 21 -91 48t-33 76q0 50 36 83.5t90 33.5q36 0 69.5 -21t48.5 -53z" />
    <glyph glyph-name="t" unicode="t" horiz-adv-x="209" 
d="M82 462v165h45v-165h81v-42h-81v-420h-45v420h-51v42h51z" />
    <glyph glyph-name="u" unicode="u" horiz-adv-x="472" 
d="M70 178v284h45v-263q0 -38 3.5 -63.5t15 -51.5t37 -39t65.5 -13q69 0 95 39.5t26 123.5v267h45v-284q0 -71 -15 -104q-16 -36 -56.5 -60t-94.5 -24q-50 0 -86 20t-52 42q-17 24 -22.5 50.5t-5.5 75.5z" />
    <glyph glyph-name="v" unicode="v" horiz-adv-x="433" 
d="M217 -25l-212 487h46l167 -381l164 381h46z" />
    <glyph glyph-name="w" unicode="w" horiz-adv-x="752" 
d="M214 83l163 404l164 -404l160 379h46l-209 -487l-163 399l-162 -399l-208 487h46z" />
    <glyph glyph-name="x" unicode="x" horiz-adv-x="443" 
d="M192 244l-172 218h54l147 -187l148 187h54l-172 -218l188 -244h-53l-165 212l-164 -212h-53z" />
    <glyph glyph-name="y" unicode="y" horiz-adv-x="460" 
d="M215 -8l-222 470h47l197 -418l177 418h46l-310 -732h-46z" />
    <glyph glyph-name="z" unicode="z" horiz-adv-x="480" 
d="M64 462h411l-377 -420h375v-42h-470l378 420h-317v42z" />
    <glyph glyph-name="braceleft" unicode="{" horiz-adv-x="300" 
d="M259 754v-46q-97 0 -97 -77v-194q0 -62 -16 -97t-57 -61v-5q42 -26 57.5 -64t15.5 -100v-192q0 -77 97 -77v-44q-81 2 -113 37.5t-32 120.5v184q0 33 -15.5 60t-57.5 56v44q43 30 58 54t15 58v184q0 86 31 121.5t114 37.5z" />
    <glyph glyph-name="bar" unicode="|" horiz-adv-x="320" 
d="M136 -214v1000h48v-1000h-48z" />
    <glyph glyph-name="braceright" unicode="}" horiz-adv-x="300" 
d="M41 708v46q83 -1 114 -38t31 -121v-184q0 -33 15.5 -59t57.5 -53v-44q-42 -30 -57.5 -56.5t-15.5 -59.5v-184q0 -85 -32 -120.5t-113 -37.5v44q97 0 97 78v193q0 68 17 102.5t56 59.5v5q-39 26 -56 57.5t-17 100.5v193q0 78 -97 78z" />
    <glyph glyph-name="asciitilde" unicode="~" 
d="M518 318l48 -23q-69 -109 -146 -109q-38 0 -110 38t-109 38q-31 0 -53.5 -19t-46.5 -55l-47 23q44 58 77.5 80.5t69.5 22.5q41 0 121 -38t99 -38q53 0 97 80z" />
    <glyph glyph-name="uni00A0" unicode="&#xa0;" horiz-adv-x="310" 
 />
    <glyph glyph-name="exclamdown" unicode="&#xa1;" horiz-adv-x="320" 
d="M201 431q0 -17 -12 -29t-29 -12t-29 12t-12 29t12 29t29 12t29 -12t12 -29zM136 -290v611h48v-611h-48z" />
    <glyph glyph-name="cent" unicode="&#xa2;" 
d="M316 625v117h45v-116q84 -5 145 -58v-60q-64 70 -145 76v-399q90 8 149 83h2v-61q-70 -59 -151 -64v-128h-45v129q-88 8 -148.5 76.5t-60.5 158.5q0 96 57.5 166t151.5 80zM316 186v396q-71 -10 -117.5 -67t-46.5 -131t46.5 -131t117.5 -67z" />
    <glyph glyph-name="sterling" unicode="&#xa3;" 
d="M505 565h-48q0 68 -42 111t-108 43q-60 0 -103.5 -44t-43.5 -105q0 -22 9 -46.5t18 -39.5t34 -55q62 -99 78 -142h136v-45h-127q2 -30 2 -34q0 -68 -57 -125q8 -2 70 -25t86 -23q61 0 106 82l41 -24q-59 -103 -141 -103q-36 0 -112 30q-72 29 -103 29q-50 0 -109 -59
l-27 39q26 29 62.5 47.5t71.5 17.5q64 53 64 118q0 3 -3 30h-124v45h112q-14 24 -41.5 70t-40.5 69q-33 57 -43 83.5t-10 65.5q0 79 59.5 134t141.5 55q83 0 137.5 -58t54.5 -131v-10z" />
    <glyph glyph-name="currency" unicode="&#xa4;" 
d="M474 492l42 42l36 -36l-40 -40q53 -82 53 -158q0 -73 -53 -158l40 -40l-36 -36l-42 42q-82 -58 -164 -58t-164 58l-42 -42l-36 36l40 40q-53 85 -53 158q0 76 53 158l-40 40l36 36l42 -42q82 58 164 58t164 -58zM310 98q85 0 146 61.5t61 145.5t-62 140.5t-146 56.5
q-83 0 -144.5 -57t-61.5 -140q0 -84 61 -145.5t146 -61.5z" />
    <glyph glyph-name="yen" unicode="&#xa5;" 
d="M216 442l-181 312h58l217 -377l217 377h58l-181 -312h134v-45h-160l-44 -75h204v-45h-204v-277h-48v277h-204v45h204l-43 75h-161v45h134z" />
    <glyph glyph-name="brokenbar" unicode="&#xa6;" horiz-adv-x="320" 
d="M136 411v250h48v-250h-48zM136 -89v250h48v-250h-48z" />
    <glyph glyph-name="section" unicode="&#xa7;" 
d="M486 583h-48q0 136 -124 136q-55 0 -88.5 -32.5t-33.5 -86.5q0 -25 9 -45t19 -31.5t35 -24t39 -17.5t49 -16q84 -27 116.5 -69.5t32.5 -112.5q0 -112 -113 -167q53 -20 80 -60.5t27 -94.5q0 -72 -48 -113.5t-130 -41.5q-88 0 -126 41.5t-38 125.5v15h48v-12
q0 -63 27.5 -94t89.5 -31q58 0 93.5 30.5t35.5 86.5q0 29 -10.5 51t-34.5 37.5t-44 24t-57 20.5q-89 29 -127 71t-38 111q0 59 29.5 104t83.5 68q-50 25 -73 59.5t-23 90.5q0 71 47.5 114.5t127.5 43.5q86 0 122.5 -42t44.5 -139zM310 155q56 0 95 39.5t39 92.5t-40 93.5
t-95 40.5q-53 0 -93.5 -39t-40.5 -95q0 -55 40 -93.5t95 -38.5z" />
    <glyph glyph-name="dieresis" unicode="&#xa8;" horiz-adv-x="421" 
d="M157 634q0 -16 -11.5 -28t-28.5 -12q-16 0 -28 11.5t-12 28.5q0 16 11.5 28t28.5 12t28.5 -12t11.5 -28zM344 634q0 -16 -11.5 -28t-28.5 -12q-16 0 -28 11.5t-12 28.5q0 15 11 27.5t29 12.5q16 0 28 -11.5t12 -28.5z" />
    <glyph glyph-name="copyright" unicode="&#xa9;" horiz-adv-x="800" 
d="M787 378q0 -160 -113 -274t-273 -114q-161 0 -274.5 113.5t-113.5 274.5q0 160 114 273t274 113t273 -112.5t113 -273.5zM401 38q141 0 239.5 98.5t98.5 241.5q0 144 -99.5 241t-239.5 97t-239.5 -98.5t-99.5 -239.5q0 -143 99 -241.5t241 -98.5zM597 457h-48
q-7 45 -46 71.5t-87 26.5q-73 0 -118.5 -49t-45.5 -124q0 -73 47 -124.5t119 -51.5q48 0 86.5 28t44.5 74h48q-7 -68 -59 -109t-120 -41q-95 0 -154.5 64t-59.5 159q0 98 57.5 160t153.5 62q71 0 121 -38.5t61 -107.5z" />
    <glyph glyph-name="ordfeminine" unicode="&#xaa;" horiz-adv-x="336" 
d="M284 710h2v48h29v-277h-29v50h-2q-17 -26 -48.5 -41t-65.5 -15q-64 0 -106 40.5t-42 105.5q0 64 40.5 103.5t106.5 39.5q76 0 115 -54zM165 509q52 0 84 33t32 81q0 47 -34 77t-84 30q-46 0 -76.5 -32.5t-30.5 -77.5q0 -48 31.5 -79.5t77.5 -31.5z" />
    <glyph glyph-name="guillemotleft" unicode="&#xab;" horiz-adv-x="397" 
d="M35 320l146 169l29 -27l-121 -142l121 -142l-29 -27zM155 320l146 169l29 -27l-121 -142l121 -142l-29 -27z" />
    <glyph glyph-name="logicalnot" unicode="&#xac;" 
d="M518 99v218h-464v48h512v-266h-48z" />
    <glyph glyph-name="uni00AD" unicode="&#xad;" horiz-adv-x="190" 
d="M0 342h190v-45h-190v45z" />
    <glyph glyph-name="registered" unicode="&#xae;" horiz-adv-x="800" 
d="M260 581h190q145 0 145 -112q0 -110 -133 -116l128 -195h-62l-121 195h-99v-195h-48v423zM308 401h137q102 0 102 69q0 63 -109 63h-130v-132zM787 378q0 -160 -113 -274t-273 -114q-161 0 -274.5 113.5t-113.5 274.5q0 160 114 273t274 113t273 -112.5t113 -273.5z
M401 38q141 0 239.5 98.5t98.5 241.5q0 144 -99.5 241t-239.5 97t-239.5 -98.5t-99.5 -239.5q0 -143 99 -241.5t241 -98.5z" />
    <glyph glyph-name="macron" unicode="&#xaf;" horiz-adv-x="456" 
d="M75 674h305v-45h-305v45z" />
    <glyph glyph-name="degree" unicode="&#xb0;" horiz-adv-x="400" 
d="M350 614q0 -62 -44 -106t-106 -44t-106 44t-44 106q-1 62 43.5 106t106.5 44t106 -44t44 -106zM199 722q-45 0 -76 -31.5t-31 -76.5q0 -46 31 -77t77 -31q45 0 76.5 31t31.5 77q0 45 -31.5 76.5t-77.5 31.5z" />
    <glyph glyph-name="plusminus" unicode="&#xb1;" 
d="M286 320v192h48v-192h232v-48h-232v-192h-48v192h-232v48h232zM54 48h512v-48h-512v48z" />
    <glyph glyph-name="twosuperior" unicode="&#xb2;" horiz-adv-x="372" 
d="M338 632q0 -64 -80 -146l-144 -146h222v-34h-302l182 185q88 89 88 143q0 42 -32.5 69t-80.5 27q-52 0 -82.5 -27.5t-30.5 -71.5h-34q1 50 30 84q19 22 53.5 35.5t63.5 13.5q61 0 104 -38t43 -94z" />
    <glyph glyph-name="threesuperior" unicode="&#xb3;" horiz-adv-x="372" 
d="M319 648q0 -36 -20 -63.5t-54 -41.5q36 -13 58.5 -43.5t22.5 -66.5q0 -56 -41 -94.5t-103 -38.5q-58 0 -97 33.5t-39 83.5h34q11 -83 101 -83q44 0 77.5 26.5t33.5 70.5t-31 69t-78 25v34q44 0 73 24.5t29 65.5q0 36 -27 58.5t-68 22.5q-87 0 -92 -78h-34q5 54 39 83
t88 29q52 0 90 -33t38 -83z" />
    <glyph glyph-name="acute" unicode="&#xb4;" horiz-adv-x="313" 
d="M75 567l101 147l61 -19l-124 -145z" />
    <glyph glyph-name="mu" unicode="&#xb5;" horiz-adv-x="472" 
d="M115 -270h-45v732h45v-228q0 -36 5 -67.5t17 -64t37.5 -51.5t61.5 -19q40 0 65.5 13t37 39t15 52t3.5 65v261h45v-277q0 -33 -0.5 -48.5t-7.5 -41t-20 -43.5q-47 -62 -138 -62q-34 0 -70 22t-49 60h-2v-342z" />
    <glyph glyph-name="paragraph" unicode="&#xb6;" 
d="M309 754h201v-45h-40v-887h-48v887h-92v-887h-48v548q-74 0 -123 55t-49 135q0 97 51 145.5t148 48.5z" />
    <glyph glyph-name="periodcentered" unicode="&#xb7;" horiz-adv-x="310" 
d="M196 256q0 -17 -12 -29t-29 -12t-29 12t-12 29t12 29t29 12t29 -12t12 -29z" />
    <glyph glyph-name="cedilla" unicode="&#xb8;" horiz-adv-x="299" 
d="M75 -164l93 144l56 -22l-111 -141z" />
    <glyph glyph-name="onesuperior" unicode="&#xb9;" horiz-adv-x="372" 
d="M149 754h95v-448h-34v414h-76z" />
    <glyph glyph-name="ordmasculine" unicode="&#xba;" horiz-adv-x="328" 
d="M321 620q0 -61 -46 -103t-112 -42q-64 0 -110 41.5t-46 102.5t46 103t110 42q67 0 112.5 -42t45.5 -102zM161 509q49 0 85 31.5t36 77.5q0 47 -34.5 79.5t-87.5 32.5q-45 0 -79.5 -33.5t-34.5 -78.5q0 -44 34 -76.5t81 -32.5z" />
    <glyph glyph-name="guillemotright" unicode="&#xbb;" horiz-adv-x="397" 
d="M67 462l29 27l146 -169l-146 -169l-29 27l121 142zM187 462l29 27l146 -169l-146 -169l-29 27l121 142z" />
    <glyph glyph-name="onequarter" unicode="&#xbc;" horiz-adv-x="930" 
d="M471 86l287 382h6v-352h66v-34h-66v-82h-34v82h-259v4zM725 367l-186 -247v-4h191v251h-5zM115 754h95v-448h-34v414h-76zM202 1l447 771l32 -18l-447 -771z" />
    <glyph glyph-name="onehalf" unicode="&#xbd;" horiz-adv-x="930" 
d="M115 754h95v-448h-34v414h-76zM158 1l447 771l32 -18l-447 -771zM830 326q0 -64 -80 -146l-144 -146h222v-34h-302l182 185q88 89 88 143q0 42 -32.5 69t-80.5 27q-52 0 -82.5 -27.5t-30.5 -71.5h-34q1 50 30 84q19 22 53.5 35.5t63.5 13.5q61 0 104 -38t43 -94z" />
    <glyph glyph-name="threequarters" unicode="&#xbe;" horiz-adv-x="930" 
d="M511 86l287 382h6v-352h66v-34h-66v-82h-34v82h-259v4zM765 367l-186 -247v-4h191v251h-5zM333 648q0 -36 -20 -63.5t-54 -41.5q36 -13 58.5 -43.5t22.5 -66.5q0 -56 -41 -94.5t-103 -38.5q-58 0 -97 33.5t-39 83.5h34q11 -83 101 -83q44 0 77.5 26.5t33.5 70.5t-31 69
t-78 25v34q44 0 73 24.5t29 65.5q0 36 -27 58.5t-68 22.5q-87 0 -92 -78h-34q5 54 39 83t88 29q52 0 90 -33t38 -83zM255 1l447 771l32 -18l-447 -771z" />
    <glyph glyph-name="questiondown" unicode="&#xbf;" horiz-adv-x="491" 
d="M289 431q0 -17 -12 -29t-29 -12t-29 12t-12 29t12 29t29 12t29 -12t12 -29zM403 171q0 -67 -40 -102.5t-114 -53.5q-77 -19 -106 -48.5t-29 -86.5q0 -58 38 -97.5t95 -39.5t93.5 36.5t36.5 91.5q0 32 -5 52h46q7 -42 7 -64q0 -67 -52 -114t-127 -47q-80 0 -130 50
t-50 130q0 71 37 114t126 64q70 17 98 41.5t28 70.5q0 47 -31.5 77t-80.5 30q-47 0 -76.5 -33t-29.5 -83h-48v9q0 68 44.5 110t111.5 42t112.5 -42.5t45.5 -106.5z" />
    <glyph glyph-name="Agrave" unicode="&#xc0;" horiz-adv-x="641" 
d="M5 0l316 779l315 -779h-49l-101 248h-331l-101 -248h-49zM321 657l-148 -364h295zM239 952l61 19l101 -147l-38 -17z" />
    <glyph glyph-name="Aacute" unicode="&#xc1;" horiz-adv-x="641" 
d="M5 0l316 779l315 -779h-49l-101 248h-331l-101 -248h-49zM321 657l-148 -364h295zM239 824l101 147l61 -19l-124 -145z" />
    <glyph glyph-name="Acircumflex" unicode="&#xc2;" horiz-adv-x="641" 
d="M5 0l316 779l315 -779h-49l-101 248h-331l-101 -248h-49zM321 657l-148 -364h295zM183 845l138 106l138 -106l-38 -29l-100 77l-102 -77z" />
    <glyph glyph-name="Atilde" unicode="&#xc3;" horiz-adv-x="641" 
d="M5 0l316 779l315 -779h-49l-101 248h-331l-101 -248h-49zM321 657l-148 -364h295zM435 931l29 -22q-7 -27 -30 -46t-51 -19q-19 0 -64.5 20t-68.5 20q-31 0 -44 -41l-30 22q11 27 31.5 45.5t46.5 18.5q24 0 71 -19.5t62 -19.5q34 0 48 41z" />
    <glyph glyph-name="Adieresis" unicode="&#xc4;" horiz-adv-x="641" 
d="M5 0l316 779l315 -779h-49l-101 248h-331l-101 -248h-49zM321 657l-148 -364h295zM267 891q0 -17 -11.5 -28.5t-28.5 -11.5t-28.5 11.5t-11.5 28.5t11.5 28.5t28.5 11.5t28.5 -11.5t11.5 -28.5zM454 891q0 -17 -11.5 -28.5t-28.5 -11.5t-28.5 11.5t-11.5 28.5t11.5 28.5
t28.5 11.5t28.5 -11.5t11.5 -28.5z" />
    <glyph glyph-name="Aring" unicode="&#xc5;" horiz-adv-x="641" 
d="M5 0l316 779l315 -779h-49l-101 248h-331l-101 -248h-49zM321 657l-148 -364h295zM408 884q0 -36 -25.5 -61.5t-61.5 -25.5t-61.5 25.5t-25.5 61.5t25.5 61.5t61.5 25.5t61.5 -25.5t25.5 -61.5zM321 837q20 0 33.5 13.5t13.5 33.5t-13.5 33.5t-33.5 13.5t-33.5 -13.5
t-13.5 -33.5t13.5 -33.5t33.5 -13.5z" />
    <glyph glyph-name="AE" unicode="&#xc6;" horiz-adv-x="942" 
d="M309 754h329l17 -45h-311l112 -274h303l19 -45h-303l140 -345h312l18 -45h-365l-100 248h-323l-98 -248h-54zM317 648l-141 -355h285z" />
    <glyph glyph-name="Ccedilla" unicode="&#xc7;" horiz-adv-x="739" 
d="M680 666v-66q-44 54 -113.5 86.5t-139.5 32.5q-140 0 -241.5 -103.5t-101.5 -243.5q0 -146 118 -248q104 -89 225 -89q67 0 139 32.5t114 82.5v-66q-115 -94 -251 -94q-159 0 -276 114t-117 272q0 160 116.5 274t277.5 114q142 0 250 -98zM295 -164l93 144l56 -22
l-111 -141z" />
    <glyph glyph-name="Egrave" unicode="&#xc8;" horiz-adv-x="507" 
d="M81 754h360v-45h-312v-274h304v-45h-304v-345h312v-45h-360v754zM172 952l61 19l101 -147l-38 -17z" />
    <glyph glyph-name="Eacute" unicode="&#xc9;" horiz-adv-x="507" 
d="M81 754h360v-45h-312v-274h304v-45h-304v-345h312v-45h-360v754zM192 824l101 147l61 -19l-124 -145z" />
    <glyph glyph-name="Ecircumflex" unicode="&#xca;" horiz-adv-x="507" 
d="M81 754h360v-45h-312v-274h304v-45h-304v-345h312v-45h-360v754zM116 845l138 106l138 -106l-38 -29l-100 77l-102 -77z" />
    <glyph glyph-name="Edieresis" unicode="&#xcb;" horiz-adv-x="507" 
d="M81 754h360v-45h-312v-274h304v-45h-304v-345h312v-45h-360v754zM200 891q0 -17 -11.5 -28.5t-28.5 -11.5t-28.5 11.5t-11.5 28.5t11.5 28.5t28.5 11.5t28.5 -11.5t11.5 -28.5zM387 891q0 -17 -11.5 -28.5t-28.5 -11.5t-28.5 11.5t-11.5 28.5t11.5 28.5t28.5 11.5
t28.5 -11.5t11.5 -28.5z" />
    <glyph glyph-name="Igrave" unicode="&#xcc;" horiz-adv-x="210" 
d="M81 0v754h48v-754h-48zM25 952l61 19l101 -147l-38 -17z" />
    <glyph glyph-name="Iacute" unicode="&#xcd;" horiz-adv-x="210" 
d="M81 0v754h48v-754h-48zM25 824l101 147l61 -19l-124 -145z" />
    <glyph glyph-name="Icircumflex" unicode="&#xce;" horiz-adv-x="210" 
d="M81 0v754h48v-754h-48zM-32 845l138 106l138 -106l-38 -29l-100 77l-102 -77z" />
    <glyph glyph-name="Idieresis" unicode="&#xcf;" horiz-adv-x="210" 
d="M81 0v754h48v-754h-48zM53 891q0 -17 -11.5 -28.5t-28.5 -11.5t-28.5 11.5t-11.5 28.5t11.5 28.5t28.5 11.5t28.5 -11.5t11.5 -28.5zM240 891q0 -17 -11.5 -28.5t-28.5 -11.5t-28.5 11.5t-11.5 28.5t11.5 28.5t28.5 11.5t28.5 -11.5t11.5 -28.5z" />
    <glyph glyph-name="Eth" unicode="&#xd0;" horiz-adv-x="652" 
d="M81 754h142q94 0 164.5 -26t127.5 -87q102 -109 102 -265q0 -152 -102 -262q-58 -62 -129 -88t-163 -26h-142v389h-81v45h81v320zM129 45h93q164 0 257 101q90 98 90 230q0 140 -95 237q-52 53 -112.5 74.5t-141.5 21.5h-91v-275h173v-45h-173v-344z" />
    <glyph glyph-name="Ntilde" unicode="&#xd1;" horiz-adv-x="843" 
d="M81 0v764l633 -668v658h48v-779l-633 673v-648h-48zM536 931l29 -22q-7 -27 -30 -46t-51 -19q-19 0 -64.5 20t-68.5 20q-31 0 -44 -41l-30 22q11 27 31.5 45.5t46.5 18.5q24 0 71 -19.5t62 -19.5q34 0 48 41z" />
    <glyph glyph-name="Ograve" unicode="&#xd2;" horiz-adv-x="854" 
d="M818 377q0 -158 -115.5 -272.5t-275.5 -114.5q-159 0 -275 114t-116 273q0 160 115.5 273.5t275.5 113.5q157 0 274 -113t117 -274zM427 35q138 0 240.5 100.5t102.5 241.5t-102 241.5t-242 100.5q-138 0 -240 -100.5t-102 -241.5q0 -140 101.5 -241t241.5 -101zM346 952
l61 19l101 -147l-38 -17z" />
    <glyph glyph-name="Oacute" unicode="&#xd3;" horiz-adv-x="854" 
d="M818 377q0 -158 -115.5 -272.5t-275.5 -114.5q-159 0 -275 114t-116 273q0 160 115.5 273.5t275.5 113.5q157 0 274 -113t117 -274zM427 35q138 0 240.5 100.5t102.5 241.5t-102 241.5t-242 100.5q-138 0 -240 -100.5t-102 -241.5q0 -140 101.5 -241t241.5 -101zM346 824
l101 147l61 -19l-124 -145z" />
    <glyph glyph-name="Ocircumflex" unicode="&#xd4;" horiz-adv-x="854" 
d="M818 377q0 -158 -115.5 -272.5t-275.5 -114.5q-159 0 -275 114t-116 273q0 160 115.5 273.5t275.5 113.5q157 0 274 -113t117 -274zM427 35q138 0 240.5 100.5t102.5 241.5t-102 241.5t-242 100.5q-138 0 -240 -100.5t-102 -241.5q0 -140 101.5 -241t241.5 -101zM289 845
l138 106l138 -106l-38 -29l-100 77l-102 -77z" />
    <glyph glyph-name="Otilde" unicode="&#xd5;" horiz-adv-x="854" 
d="M818 377q0 -158 -115.5 -272.5t-275.5 -114.5q-159 0 -275 114t-116 273q0 160 115.5 273.5t275.5 113.5q157 0 274 -113t117 -274zM427 35q138 0 240.5 100.5t102.5 241.5t-102 241.5t-242 100.5q-138 0 -240 -100.5t-102 -241.5q0 -140 101.5 -241t241.5 -101zM542 931
l29 -22q-7 -27 -30 -46t-51 -19q-19 0 -64.5 20t-68.5 20q-31 0 -44 -41l-30 22q11 27 31.5 45.5t46.5 18.5q24 0 71 -19.5t62 -19.5q34 0 48 41z" />
    <glyph glyph-name="Odieresis" unicode="&#xd6;" horiz-adv-x="854" 
d="M818 377q0 -158 -115.5 -272.5t-275.5 -114.5q-159 0 -275 114t-116 273q0 160 115.5 273.5t275.5 113.5q157 0 274 -113t117 -274zM427 35q138 0 240.5 100.5t102.5 241.5t-102 241.5t-242 100.5q-138 0 -240 -100.5t-102 -241.5q0 -140 101.5 -241t241.5 -101zM374 891
q0 -17 -11.5 -28.5t-28.5 -11.5t-28.5 11.5t-11.5 28.5t11.5 28.5t28.5 11.5t28.5 -11.5t11.5 -28.5zM561 891q0 -17 -11.5 -28.5t-28.5 -11.5t-28.5 11.5t-11.5 28.5t11.5 28.5t28.5 11.5t28.5 -11.5t11.5 -28.5z" />
    <glyph glyph-name="multiply" unicode="&#xd7;" 
d="M54 478l30 34l226 -226l226 226l30 -34l-224 -222l224 -224l-30 -32l-226 225l-225 -225l-31 32l225 224z" />
    <glyph glyph-name="Oslash" unicode="&#xd8;" horiz-adv-x="854" 
d="M685 665l91 91l29 -26l-92 -92q105 -112 105 -261q0 -159 -116 -273t-275 -114q-72 0 -141 27t-119 74l-91 -91l-27 29l90 90q-103 112 -103 258q0 158 115.5 272.5t275.5 114.5q147 0 258 -99zM171 151l481 481q-95 87 -226 87q-138 0 -240 -100.5t-102 -241.5
q0 -130 87 -226zM680 605l-481 -482q101 -88 228 -88q137 0 240 100t103 242q0 129 -90 228z" />
    <glyph glyph-name="Ugrave" unicode="&#xd9;" horiz-adv-x="660" 
d="M74 263v491h48v-474q0 -98 24 -148q22 -45 74.5 -71t109.5 -26q56 0 105 24t71 59q19 31 25.5 67.5t6.5 104.5v464h48v-478q0 -60 -5 -92.5t-21 -66.5q-25 -54 -89 -90.5t-141 -36.5q-80 0 -142 37q-64 37 -89 91t-25 145zM234 952l61 19l101 -147l-38 -17z" />
    <glyph glyph-name="Uacute" unicode="&#xda;" horiz-adv-x="660" 
d="M74 263v491h48v-474q0 -98 24 -148q22 -45 74.5 -71t109.5 -26q56 0 105 24t71 59q19 31 25.5 67.5t6.5 104.5v464h48v-478q0 -60 -5 -92.5t-21 -66.5q-25 -54 -89 -90.5t-141 -36.5q-80 0 -142 37q-64 37 -89 91t-25 145zM264 824l101 147l61 -19l-124 -145z" />
    <glyph glyph-name="Ucircumflex" unicode="&#xdb;" horiz-adv-x="660" 
d="M74 263v491h48v-474q0 -98 24 -148q22 -45 74.5 -71t109.5 -26q56 0 105 24t71 59q19 31 25.5 67.5t6.5 104.5v464h48v-478q0 -60 -5 -92.5t-21 -66.5q-25 -54 -89 -90.5t-141 -36.5q-80 0 -142 37q-64 37 -89 91t-25 145zM192 845l138 106l138 -106l-38 -29l-100 77
l-102 -77z" />
    <glyph glyph-name="Udieresis" unicode="&#xdc;" horiz-adv-x="660" 
d="M74 263v491h48v-474q0 -98 24 -148q22 -45 74.5 -71t109.5 -26q56 0 105 24t71 59q19 31 25.5 67.5t6.5 104.5v464h48v-478q0 -60 -5 -92.5t-21 -66.5q-25 -54 -89 -90.5t-141 -36.5q-80 0 -142 37q-64 37 -89 91t-25 145zM277 891q0 -17 -11.5 -28.5t-28.5 -11.5
t-28.5 11.5t-11.5 28.5t11.5 28.5t28.5 11.5t28.5 -11.5t11.5 -28.5zM464 891q0 -17 -11.5 -28.5t-28.5 -11.5t-28.5 11.5t-11.5 28.5t11.5 28.5t28.5 11.5t28.5 -11.5t11.5 -28.5z" />
    <glyph glyph-name="Yacute" unicode="&#xdd;" horiz-adv-x="559" 
d="M255 322l-251 432h53l222 -382l222 382h53l-251 -432v-322h-48v322zM228 824l101 147l61 -19l-124 -145z" />
    <glyph glyph-name="Thorn" unicode="&#xde;" horiz-adv-x="472" 
d="M81 0v754h48v-160h91q107 0 157 -44q68 -61 68 -155q0 -84 -49 -136q-59 -61 -177 -61h-90v-198h-48zM129 243h98q84 0 127 46t43 108q0 86 -64 127q-39 25 -105 25h-99v-306z" />
    <glyph glyph-name="germandbls" unicode="&#xdf;" horiz-adv-x="534" 
d="M403 676q0 -46 -23.5 -83.5t-64.5 -52.5v-2q84 -23 135.5 -97.5t51.5 -162.5q0 -112 -79.5 -192.5t-191.5 -91.5v42q94 14 160 81t66 161q0 97 -62.5 161t-163.5 75v42q57 1 92 34.5t35 90.5q0 49 -34 82t-87 33q-58 0 -90 -39q-25 -31 -25 -109v-648h-45v420h-49v42h49
v198q0 77 29 115q48 63 138 63q68 0 113.5 -46t45.5 -116z" />
    <glyph glyph-name="agrave" unicode="&#xe0;" horiz-adv-x="560" 
d="M436 382h2v80h45v-462h-45v83h-2q-26 -43 -74.5 -68t-101.5 -25q-100 0 -164 68.5t-64 175.5q0 104 62 171t164 67q55 0 102.5 -24t75.5 -66zM259 32q82 0 132 58t50 149q0 86 -53 138.5t-133 52.5q-75 0 -126.5 -58t-51.5 -138q0 -86 52 -144t130 -58zM184 695l61 19
l101 -147l-38 -17z" />
    <glyph glyph-name="aacute" unicode="&#xe1;" horiz-adv-x="560" 
d="M436 382h2v80h45v-462h-45v83h-2q-26 -43 -74.5 -68t-101.5 -25q-100 0 -164 68.5t-64 175.5q0 104 62 171t164 67q55 0 102.5 -24t75.5 -66zM259 32q82 0 132 58t50 149q0 86 -53 138.5t-133 52.5q-75 0 -126.5 -58t-51.5 -138q0 -86 52 -144t130 -58zM214 567l101 147
l61 -19l-124 -145z" />
    <glyph glyph-name="acircumflex" unicode="&#xe2;" horiz-adv-x="560" 
d="M436 382h2v80h45v-462h-45v83h-2q-26 -43 -74.5 -68t-101.5 -25q-100 0 -164 68.5t-64 175.5q0 104 62 171t164 67q55 0 102.5 -24t75.5 -66zM259 32q82 0 132 58t50 149q0 86 -53 138.5t-133 52.5q-75 0 -126.5 -58t-51.5 -138q0 -86 52 -144t130 -58zM142 588l138 106
l138 -106l-38 -29l-100 77l-102 -77z" />
    <glyph glyph-name="atilde" unicode="&#xe3;" horiz-adv-x="560" 
d="M437 382h2v80h45v-462h-45v83h-2q-26 -43 -74.5 -68t-101.5 -25q-100 0 -164 68.5t-64 175.5q0 104 62 171t164 67q55 0 102.5 -24t75.5 -66zM260 32q82 0 132 58t50 149q0 86 -53 138.5t-133 52.5q-75 0 -126.5 -58t-51.5 -138q0 -86 52 -144t130 -58zM395 674l29 -22
q-7 -27 -30 -46t-51 -19q-15 0 -64 20t-69 20q-31 0 -44 -41l-30 22q11 27 31.5 45.5t46.5 18.5q25 0 71.5 -19.5t61.5 -19.5q34 0 48 41z" />
    <glyph glyph-name="adieresis" unicode="&#xe4;" horiz-adv-x="560" 
d="M436 382h2v80h45v-462h-45v83h-2q-26 -43 -74.5 -68t-101.5 -25q-100 0 -164 68.5t-64 175.5q0 104 62 171t164 67q55 0 102.5 -24t75.5 -66zM259 32q82 0 132 58t50 149q0 86 -53 138.5t-133 52.5q-75 0 -126.5 -58t-51.5 -138q0 -86 52 -144t130 -58zM227 634
q0 -16 -11.5 -28t-28.5 -12q-16 0 -28 11.5t-12 28.5q0 16 11.5 28t28.5 12t28.5 -12t11.5 -28zM414 634q0 -16 -11.5 -28t-28.5 -12q-16 0 -28 11.5t-12 28.5q0 15 11 27.5t29 12.5q16 0 28 -11.5t12 -28.5z" />
    <glyph glyph-name="aring" unicode="&#xe5;" horiz-adv-x="560" 
d="M436 382h2v80h45v-462h-45v83h-2q-26 -43 -74.5 -68t-101.5 -25q-100 0 -164 68.5t-64 175.5q0 104 62 171t164 67q55 0 102.5 -24t75.5 -66zM259 32q82 0 132 58t50 149q0 86 -53 138.5t-133 52.5q-75 0 -126.5 -58t-51.5 -138q0 -86 52 -144t130 -58zM367 627
q0 -36 -25.5 -61.5t-61.5 -25.5t-61.5 25.5t-25.5 61.5t25.5 61.5t61.5 25.5t61.5 -25.5t25.5 -61.5zM280 580q20 0 33.5 13.5t13.5 33.5t-13.5 33.5t-33.5 13.5t-33.5 -13.5t-13.5 -33.5t13.5 -33.5t33.5 -13.5z" />
    <glyph glyph-name="ae" unicode="&#xe6;" horiz-adv-x="849" 
d="M397 344q25 59 80.5 93.5t115.5 34.5q100 0 161.5 -71t62.5 -175h-401q2 -81 53 -137.5t129 -56.5q104 0 165 104l39 -26q-78 -120 -206 -120q-63 0 -114.5 31.5t-74.5 82.5h-2q-14 -53 -66.5 -83.5t-125.5 -30.5q-80 0 -136 39.5t-56 104.5q0 67 58.5 106t142.5 39
q92 0 149 -49q0 97 -42.5 148.5t-121.5 51.5q-63 0 -155 -42v46q78 38 163 38q66 0 113 -33.5t69 -94.5zM416 268h356q-8 65 -59 113.5t-118 48.5q-68 0 -120.5 -48t-58.5 -114zM217 32q58 0 106 26.5t48 76.5q0 47 -40.5 74.5t-109.5 27.5q-63 0 -109 -25t-46 -77
q0 -49 39.5 -76t111.5 -27z" />
    <glyph glyph-name="ccedilla" unicode="&#xe7;" horiz-adv-x="477" 
d="M431 415v-60q-69 75 -163 75q-79 0 -135 -59t-56 -139q0 -82 56 -141t134 -59q99 0 170 83v-61q-70 -64 -168 -64q-101 0 -169 69.5t-68 172.5q0 102 69 171t169 69q92 0 161 -57zM164 -164l93 144l56 -22l-111 -141z" />
    <glyph glyph-name="egrave" unicode="&#xe8;" horiz-adv-x="510" 
d="M478 227h-401v-6q0 -84 52 -136.5t133 -52.5q53 0 95.5 28t67.5 77l38 -22q-67 -125 -207 -125q-97 0 -160.5 69t-63.5 173q0 103 64 171.5t160 68.5q99 0 160.5 -68.5t61.5 -176.5zM77 269h356q-8 68 -58 114.5t-119 46.5t-121.5 -48.5t-57.5 -112.5zM159 695l61 19
l101 -147l-38 -17z" />
    <glyph glyph-name="eacute" unicode="&#xe9;" horiz-adv-x="510" 
d="M478 227h-401v-6q0 -84 52 -136.5t133 -52.5q53 0 95.5 28t67.5 77l38 -22q-67 -125 -207 -125q-97 0 -160.5 69t-63.5 173q0 103 64 171.5t160 68.5q99 0 160.5 -68.5t61.5 -176.5zM77 269h356q-8 68 -58 114.5t-119 46.5t-121.5 -48.5t-57.5 -112.5zM189 567l101 147
l61 -19l-124 -145z" />
    <glyph glyph-name="ecircumflex" unicode="&#xea;" horiz-adv-x="510" 
d="M478 227h-401v-6q0 -84 52 -136.5t133 -52.5q53 0 95.5 28t67.5 77l38 -22q-67 -125 -207 -125q-97 0 -160.5 69t-63.5 173q0 103 64 171.5t160 68.5q99 0 160.5 -68.5t61.5 -176.5zM77 269h356q-8 68 -58 114.5t-119 46.5t-121.5 -48.5t-57.5 -112.5zM117 588l138 106
l138 -106l-38 -29l-100 77l-102 -77z" />
    <glyph glyph-name="edieresis" unicode="&#xeb;" horiz-adv-x="510" 
d="M478 227h-401v-6q0 -84 52 -136.5t133 -52.5q53 0 95.5 28t67.5 77l38 -22q-67 -125 -207 -125q-97 0 -160.5 69t-63.5 173q0 103 64 171.5t160 68.5q99 0 160.5 -68.5t61.5 -176.5zM77 269h356q-8 68 -58 114.5t-119 46.5t-121.5 -48.5t-57.5 -112.5zM202 634
q0 -16 -11.5 -28t-28.5 -12q-16 0 -28 11.5t-12 28.5q0 16 11.5 28t28.5 12t28.5 -12t11.5 -28zM389 634q0 -16 -11.5 -28t-28.5 -12q-16 0 -28 11.5t-12 28.5q0 15 11 27.5t29 12.5q16 0 28 -11.5t12 -28.5z" />
    <glyph glyph-name="igrave" unicode="&#xec;" horiz-adv-x="234" 
d="M94 0v462h45v-462h-45zM22 695l61 19l101 -147l-38 -17z" />
    <glyph glyph-name="iacute" unicode="&#xed;" horiz-adv-x="234" 
d="M94 0v462h45v-462h-45zM52 567l101 147l61 -19l-124 -145z" />
    <glyph glyph-name="icircumflex" unicode="&#xee;" horiz-adv-x="234" 
d="M94 0v462h45v-462h-45zM-20 588l138 106l138 -106l-38 -29l-100 77l-102 -77z" />
    <glyph glyph-name="idieresis" unicode="&#xef;" horiz-adv-x="234" 
d="M94 0v462h45v-462h-45zM65 634q0 -16 -11.5 -28t-28.5 -12q-16 0 -28 11.5t-12 28.5q0 16 11.5 28t28.5 12t28.5 -12t11.5 -28zM252 634q0 -16 -11.5 -28t-28.5 -12q-16 0 -28 11.5t-12 28.5q0 15 11 27.5t29 12.5q16 0 28 -11.5t12 -28.5z" />
    <glyph glyph-name="eth" unicode="&#xf0;" horiz-adv-x="547" 
d="M89 798l32 30q68 -39 139 -95l155 87l25 -33l-147 -82q222 -197 222 -445q0 -130 -70.5 -200t-172.5 -70q-100 0 -170 70.5t-70 170.5q0 98 71 170t172 72q93 0 169 -70q-32 90 -72 148t-119 131l-146 -82l-25 34l137 75q-44 38 -130 89zM269 32q86 0 143.5 57t57.5 141
q0 85 -57.5 142.5t-144.5 57.5q-80 0 -135.5 -59t-55.5 -141q0 -81 56 -139.5t136 -58.5z" />
    <glyph glyph-name="ntilde" unicode="&#xf1;" horiz-adv-x="490" 
d="M413 283v-283h-45v285q0 73 -22.5 109t-88.5 36q-135 0 -135 -197v-233h-45v462h45v-72h2q20 39 56 60.5t81 21.5q83 0 117.5 -47.5t34.5 -141.5zM360 674l29 -22q-7 -27 -30 -46t-51 -19q-15 0 -64 20t-69 20q-31 0 -44 -41l-30 22q11 27 31.5 45.5t46.5 18.5
q25 0 71.5 -19.5t61.5 -19.5q34 0 48 41z" />
    <glyph glyph-name="ograve" unicode="&#xf2;" horiz-adv-x="547" 
d="M515 231q0 -102 -70 -171.5t-173 -69.5q-100 0 -170 70.5t-70 169.5q0 101 70 171.5t170 70.5q102 0 172.5 -69.5t70.5 -171.5zM269 32q86 0 143.5 57t57.5 141q0 85 -57.5 142.5t-144.5 57.5q-80 0 -135.5 -59t-55.5 -141q0 -81 56 -139.5t136 -58.5zM177 695l61 19
l101 -147l-38 -17z" />
    <glyph glyph-name="oacute" unicode="&#xf3;" horiz-adv-x="547" 
d="M515 231q0 -102 -70 -171.5t-173 -69.5q-100 0 -170 70.5t-70 169.5q0 101 70 171.5t170 70.5q102 0 172.5 -69.5t70.5 -171.5zM269 32q86 0 143.5 57t57.5 141q0 85 -57.5 142.5t-144.5 57.5q-80 0 -135.5 -59t-55.5 -141q0 -81 56 -139.5t136 -58.5zM207 567l101 147
l61 -19l-124 -145z" />
    <glyph glyph-name="ocircumflex" unicode="&#xf4;" horiz-adv-x="547" 
d="M515 231q0 -102 -70 -171.5t-173 -69.5q-100 0 -170 70.5t-70 169.5q0 101 70 171.5t170 70.5q102 0 172.5 -69.5t70.5 -171.5zM269 32q86 0 143.5 57t57.5 141q0 85 -57.5 142.5t-144.5 57.5q-80 0 -135.5 -59t-55.5 -141q0 -81 56 -139.5t136 -58.5zM136 588l138 106
l138 -106l-38 -29l-100 77l-102 -77z" />
    <glyph glyph-name="otilde" unicode="&#xf5;" horiz-adv-x="547" 
d="M515 231q0 -102 -70 -171.5t-173 -69.5q-100 0 -170 70.5t-70 169.5q0 101 70 171.5t170 70.5q102 0 172.5 -69.5t70.5 -171.5zM269 32q86 0 143.5 57t57.5 141q0 85 -57.5 142.5t-144.5 57.5q-80 0 -135.5 -59t-55.5 -141q0 -81 56 -139.5t136 -58.5zM388 674l29 -22
q-7 -27 -30 -46t-51 -19q-15 0 -64 20t-69 20q-31 0 -44 -41l-30 22q11 27 31.5 45.5t46.5 18.5q25 0 71.5 -19.5t61.5 -19.5q34 0 48 41z" />
    <glyph glyph-name="odieresis" unicode="&#xf6;" horiz-adv-x="547" 
d="M515 231q0 -102 -70 -171.5t-173 -69.5q-100 0 -170 70.5t-70 169.5q0 101 70 171.5t170 70.5q102 0 172.5 -69.5t70.5 -171.5zM269 32q86 0 143.5 57t57.5 141q0 85 -57.5 142.5t-144.5 57.5q-80 0 -135.5 -59t-55.5 -141q0 -81 56 -139.5t136 -58.5zM220 634
q0 -16 -11.5 -28t-28.5 -12q-16 0 -28 11.5t-12 28.5q0 16 11.5 28t28.5 12t28.5 -12t11.5 -28zM407 634q0 -16 -11.5 -28t-28.5 -12q-16 0 -28 11.5t-12 28.5q0 15 11 27.5t29 12.5q16 0 28 -11.5t12 -28.5z" />
    <glyph glyph-name="divide" unicode="&#xf7;" 
d="M351 471q0 -17 -12 -29t-29 -12t-29 12t-12 29t12 29t29 12t29 -12t12 -29zM54 280h512v-48h-512v48zM351 41q0 -17 -12 -29t-29 -12t-29 12t-12 29t12 29t29 12t29 -12t12 -29z" />
    <glyph glyph-name="oslash" unicode="&#xf8;" horiz-adv-x="547" 
d="M428 417l63 63l28 -29l-62 -62q58 -64 58 -158q0 -102 -70 -171.5t-173 -69.5q-51 0 -93 19t-64 41l-60 -60l-27 27l60 60q-56 65 -56 153q0 101 70 171.5t170 70.5q89 0 156 -55zM119 108l278 278q-55 44 -129 44q-80 0 -135.5 -59t-55.5 -141q0 -66 42 -122zM425 357
l-280 -277q53 -48 124 -48q86 0 143.5 57t57.5 141q0 71 -45 127z" />
    <glyph glyph-name="ugrave" unicode="&#xf9;" horiz-adv-x="472" 
d="M70 178v284h45v-263q0 -38 3.5 -63.5t15 -51.5t37 -39t65.5 -13q69 0 95 39.5t26 123.5v267h45v-284q0 -71 -15 -104q-16 -36 -56.5 -60t-94.5 -24q-50 0 -86 20t-52 42q-17 24 -22.5 50.5t-5.5 75.5zM130 695l61 19l101 -147l-38 -17z" />
    <glyph glyph-name="uacute" unicode="&#xfa;" horiz-adv-x="472" 
d="M70 178v284h45v-263q0 -38 3.5 -63.5t15 -51.5t37 -39t65.5 -13q69 0 95 39.5t26 123.5v267h45v-284q0 -71 -15 -104q-16 -36 -56.5 -60t-94.5 -24q-50 0 -86 20t-52 42q-17 24 -22.5 50.5t-5.5 75.5zM180 567l101 147l61 -19l-124 -145z" />
    <glyph glyph-name="ucircumflex" unicode="&#xfb;" horiz-adv-x="472" 
d="M70 178v284h45v-263q0 -38 3.5 -63.5t15 -51.5t37 -39t65.5 -13q69 0 95 39.5t26 123.5v267h45v-284q0 -71 -15 -104q-16 -36 -56.5 -60t-94.5 -24q-50 0 -86 20t-52 42q-17 24 -22.5 50.5t-5.5 75.5zM98 588l138 106l138 -106l-38 -29l-100 77l-102 -77z" />
    <glyph glyph-name="udieresis" unicode="&#xfc;" horiz-adv-x="472" 
d="M70 178v284h45v-263q0 -38 3.5 -63.5t15 -51.5t37 -39t65.5 -13q69 0 95 39.5t26 123.5v267h45v-284q0 -71 -15 -104q-16 -36 -56.5 -60t-94.5 -24q-50 0 -86 20t-52 42q-17 24 -22.5 50.5t-5.5 75.5zM183 634q0 -16 -11.5 -28t-28.5 -12q-16 0 -28 11.5t-12 28.5
q0 16 11.5 28t28.5 12t28.5 -12t11.5 -28zM370 634q0 -16 -11.5 -28t-28.5 -12q-16 0 -28 11.5t-12 28.5q0 15 11 27.5t29 12.5q16 0 28 -11.5t12 -28.5z" />
    <glyph glyph-name="yacute" unicode="&#xfd;" horiz-adv-x="460" 
d="M215 -8l-222 470h47l197 -418l177 418h46l-310 -732h-46zM179 567l101 147l61 -19l-124 -145z" />
    <glyph glyph-name="thorn" unicode="&#xfe;" horiz-adv-x="560" 
d="M77 -270v1095h45v-446h2q24 41 72 67t104 26q100 0 164 -68.5t64 -176.5q0 -104 -62 -170.5t-164 -66.5q-54 0 -102 23t-76 67h-2v-350h-45zM303 32q77 0 128.5 55.5t51.5 138.5q0 87 -51.5 145.5t-131.5 58.5q-79 0 -130 -58t-51 -151q0 -82 51 -135.5t133 -53.5z" />
    <glyph glyph-name="ydieresis" unicode="&#xff;" horiz-adv-x="460" 
d="M215 -8l-222 470h47l197 -418l177 418h46l-310 -732h-46zM182 634q0 -16 -11.5 -28t-28.5 -12q-16 0 -28 11.5t-12 28.5q0 16 11.5 28t28.5 12t28.5 -12t11.5 -28zM369 634q0 -16 -11.5 -28t-28.5 -12q-16 0 -28 11.5t-12 28.5q0 15 11 27.5t29 12.5q16 0 28 -11.5
t12 -28.5z" />
    <glyph glyph-name="dotlessi" unicode="&#x131;" horiz-adv-x="234" 
d="M94 0v462h45v-462h-45z" />
    <glyph glyph-name="Lslash" unicode="&#x141;" horiz-adv-x="327" 
d="M81 403v351h48v-318l128 89v-49l-128 -89v-342h192v-45h-240v354l-81 -57v49z" />
    <glyph glyph-name="lslash" unicode="&#x142;" horiz-adv-x="229" 
d="M92 436v389h45v-357l75 53v-45l-75 -53v-423h-45v391l-75 -54v45z" />
    <glyph glyph-name="OE" unicode="&#x152;" horiz-adv-x="1193" 
d="M765 558h2v196h360v-45h-312v-274h305v-45h-305v-345h312v-45h-360v194h-2q-45 -94 -139.5 -149t-199.5 -55q-156 0 -273 112.5t-117 274.5q0 161 116 274t278 113q105 0 196.5 -56t138.5 -150zM427 35q137 0 238 98.5t101 243.5q0 141 -99.5 241.5t-238.5 100.5
q-138 0 -241 -102t-103 -240q0 -141 102.5 -241.5t240.5 -100.5z" />
    <glyph glyph-name="oe" unicode="&#x153;" horiz-adv-x="945" 
d="M491 338q24 63 77.5 98.5t122.5 35.5q101 0 161.5 -67.5t60.5 -177.5h-399v-10q0 -79 53 -132t129 -53q113 0 163 107l38 -23q-30 -61 -83.5 -93.5t-121.5 -32.5t-123 37.5t-78 98.5q-30 -62 -88.5 -99t-127.5 -37q-101 0 -172 69.5t-71 170.5t71 171.5t174 70.5
q69 0 127.5 -37t86.5 -97zM271 32q82 0 140 57.5t58 140.5t-56.5 141.5t-137.5 58.5q-84 0 -141 -58t-57 -145q0 -79 58 -137t136 -58zM514 269h354q-9 69 -59.5 115t-117.5 46t-119 -46.5t-58 -114.5z" />
    <glyph glyph-name="Scaron" unicode="&#x160;" horiz-adv-x="544" 
d="M464 658l-34 -28q-55 89 -153 89q-59 0 -100.5 -41t-41.5 -103q0 -73 97 -122q30 -15 175 -90q13 -7 26 -17t30 -27.5t27.5 -45.5t10.5 -61q0 -96 -72 -159t-164 -63q-77 0 -136 44t-86 118l42 19q54 -136 182 -136q76 0 131 52.5t55 125.5q0 78 -102 128q-16 8 -178 93
q-86 44 -86 139q0 85 54 138t139 53q57 0 107 -28.5t77 -77.5zM144 923l38 28l100 -76l102 76l36 -28l-138 -107z" />
    <glyph glyph-name="scaron" unicode="&#x161;" horiz-adv-x="375" 
d="M310 398l-39 -20q-24 52 -81 52q-30 0 -54.5 -21.5t-24.5 -50.5q0 -33 23 -50t70 -34q33 -12 48.5 -19.5t39 -23.5t34 -40t10.5 -57q0 -63 -43 -103.5t-106 -40.5q-58 0 -101.5 33t-57.5 89l44 14q30 -94 115 -94q44 0 74 30t30 74q0 12 -3 22t-6 17.5t-12 15t-12.5 11
t-17 9.5t-16 7t-18.5 7l-16 6q-58 21 -91 48t-33 76q0 50 36 83.5t90 33.5q36 0 69.5 -21t48.5 -53zM51 666l38 28l100 -76l102 76l36 -28l-138 -107z" />
    <glyph glyph-name="Ydieresis" unicode="&#x178;" horiz-adv-x="559" 
d="M255 322l-251 432h53l222 -382l222 382h53l-251 -432v-322h-48v322zM238 891q0 -17 -11.5 -28.5t-28.5 -11.5t-28.5 11.5t-11.5 28.5t11.5 28.5t28.5 11.5t28.5 -11.5t11.5 -28.5zM425 891q0 -17 -11.5 -28.5t-28.5 -11.5t-28.5 11.5t-11.5 28.5t11.5 28.5t28.5 11.5
t28.5 -11.5t11.5 -28.5z" />
    <glyph glyph-name="Zcaron" unicode="&#x17d;" horiz-adv-x="568" 
d="M56 754h500l-460 -709h447v-45h-531l460 709h-416v45zM158 923l38 28l100 -76l102 76l36 -28l-138 -107z" />
    <glyph glyph-name="zcaron" unicode="&#x17e;" horiz-adv-x="480" 
d="M64 462h411l-377 -420h375v-42h-470l378 420h-317v42zM127 666l38 28l100 -76l102 76l36 -28l-138 -107z" />
    <glyph glyph-name="florin" unicode="&#x192;" 
d="M551 823l-9 -41q-23 11 -52 11q-37 0 -54.5 -20.5t-25.5 -59.5l-41 -227h116l-9 -45h-115l-82 -434q-15 -78 -46 -112.5t-83 -34.5q-39 0 -80 17l9 42q36 -14 67 -14q40 0 57.5 22.5t32.5 102.5l79 411h-69l9 45h68l39 208q0 2 2.5 14.5t4 19.5t5 20.5t7.5 22.5t10.5 19
t13.5 17q33 31 81 31q34 0 65 -15z" />
    <glyph glyph-name="circumflex" unicode="&#x2c6;" horiz-adv-x="426" 
d="M75 588l138 106l138 -106l-38 -29l-100 77l-102 -77z" />
    <glyph glyph-name="caron" unicode="&#x2c7;" horiz-adv-x="426" 
d="M75 666l38 28l100 -76l102 76l36 -28l-138 -107z" />
    <glyph glyph-name="uni02C9" unicode="&#x2c9;" horiz-adv-x="456" 
d="M75 674h305v-45h-305v45z" />
    <glyph glyph-name="breve" unicode="&#x2d8;" horiz-adv-x="434" 
d="M75 674h44q20 -61 98 -61q76 0 98 61h43q-5 -47 -44.5 -76.5t-96.5 -29.5q-58 0 -97.5 29.5t-44.5 76.5z" />
    <glyph glyph-name="dotaccent" unicode="&#x2d9;" horiz-adv-x="313" 
d="M197 634q0 -17 -11.5 -28.5t-28.5 -11.5t-28.5 11.5t-11.5 28.5t11.5 28.5t28.5 11.5t28.5 -11.5t11.5 -28.5z" />
    <glyph glyph-name="ring" unicode="&#x2da;" horiz-adv-x="324" 
d="M249 627q0 -36 -25.5 -61.5t-61.5 -25.5t-61.5 25.5t-25.5 61.5t25.5 61.5t61.5 25.5t61.5 -25.5t25.5 -61.5zM162 580q20 0 33.5 13.5t13.5 33.5t-13.5 33.5t-33.5 13.5t-33.5 -13.5t-13.5 -33.5t13.5 -33.5t33.5 -13.5z" />
    <glyph glyph-name="ogonek" unicode="&#x2db;" horiz-adv-x="321" 
d="M153 2h43v-2q-77 -56 -77 -105q0 -29 19.5 -44t48.5 -15q23 0 58 12l-10 -44q-29 -9 -52 -9q-45 0 -76.5 27t-31.5 69q0 61 78 111z" />
    <glyph glyph-name="tilde" unicode="&#x2dc;" horiz-adv-x="439" 
d="M334 674l29 -22q-7 -27 -30 -46t-51 -19q-15 0 -64 20t-69 20q-31 0 -44 -41l-30 22q11 27 31.5 45.5t46.5 18.5q25 0 71.5 -19.5t61.5 -19.5q34 0 48 41z" />
    <glyph glyph-name="hungarumlaut" unicode="&#x2dd;" horiz-adv-x="446" 
d="M76 567l101 147l61 -19l-124 -145zM209 567l101 147l61 -19l-124 -145z" />
    <glyph glyph-name="uni03A9" unicode="&#x3a9;" horiz-adv-x="817" 
d="M747 0h-258v194q97 14 154 90.5t57 181.5q0 127 -87 210t-209 83q-130 0 -212.5 -86.5t-82.5 -207.5q0 -109 59.5 -185t152.5 -86v-194h-258v42h219v119q-101 26 -160 109.5t-59 194.5q0 147 101.5 242t240.5 95q143 0 242.5 -98t99.5 -236q0 -119 -59 -197.5
t-160 -109.5v-119h219v-42z" />
    <glyph glyph-name="uni03BC" unicode="&#x3bc;" horiz-adv-x="472" 
d="M115 -270h-45v732h45v-228q0 -36 5 -67.5t17 -64t37.5 -51.5t61.5 -19q40 0 65.5 13t37 39t15 52t3.5 65v261h45v-277q0 -33 -0.5 -48.5t-7.5 -41t-20 -43.5q-47 -62 -138 -62q-34 0 -70 22t-49 60h-2v-342z" />
    <glyph glyph-name="pi" unicode="&#x3c0;" horiz-adv-x="565" 
d="M532 43v-34q-30 -14 -54 -14q-19 0 -32.5 6.5t-20.5 15t-11 24.5t-4.5 27.5t-0.5 31.5v370h-280v-470h-39v470h-72v36h508v-36h-78v-369v-10.5v-11.5t0.5 -10t1.5 -10.5t3 -8.5t5 -8t7 -5.5t9.5 -4.5t12.5 -1q25 0 45 12z" />
    <glyph glyph-name="uni1E9E" unicode="&#x1e9e;" horiz-adv-x="617" 
d="M500 754v-45q-74 0 -128.5 -32.5t-53.5 -95.5q0 -33 15.5 -60t32 -41.5t54 -41.5t56.5 -43q61 -51 84.5 -95.5t23.5 -108.5q0 -91 -54 -146t-143 -55q-149 0 -195 139l41 20q44 -114 154 -114q72 0 110.5 41.5t38.5 115.5q0 62 -31.5 106.5t-98.5 92.5q-72 51 -104 91
t-32 99q0 45 26 81t71 55q-30 2 -57 2q-95 0 -138 -34.5t-43 -123.5v-561h-48v561q0 111 58.5 158.5t184.5 44.5q81 -2 176 -10z" />
    <glyph glyph-name="endash" unicode="&#x2013;" horiz-adv-x="500" 
d="M0 342h500v-45h-500v45z" />
    <glyph glyph-name="emdash" unicode="&#x2014;" horiz-adv-x="1000" 
d="M130 342h740v-45h-740v45z" />
    <glyph glyph-name="quoteleft" unicode="&#x2018;" horiz-adv-x="259" 
d="M73 537l83 227l30 -11l-68 -229z" />
    <glyph glyph-name="quoteright" unicode="&#x2019;" horiz-adv-x="259" 
d="M73 535l68 229l45 -13l-83 -227z" />
    <glyph glyph-name="quotesinglbase" unicode="&#x201a;" horiz-adv-x="259" 
d="M73 -155l68 229l45 -14l-83 -226z" />
    <glyph glyph-name="quotedblleft" unicode="&#x201c;" horiz-adv-x="390" 
d="M73 537l83 227l30 -11l-68 -229zM204 537l83 227l30 -11l-68 -229z" />
    <glyph glyph-name="quotedblright" unicode="&#x201d;" horiz-adv-x="390" 
d="M73 535l68 229l45 -13l-83 -227zM204 535l68 229l45 -13l-83 -227z" />
    <glyph glyph-name="quotedblbase" unicode="&#x201e;" horiz-adv-x="390" 
d="M73 -155l68 229l45 -14l-83 -226zM204 -155l68 229l45 -14l-83 -226z" />
    <glyph glyph-name="dagger" unicode="&#x2020;" 
d="M286 555v199h48v-199h181v-45h-181v-688h-48v688h-181v45h181z" />
    <glyph glyph-name="daggerdbl" unicode="&#x2021;" 
d="M286 555v199h48v-199h181v-45h-181v-428h181v-45h-181v-215h-48v215h-181v45h181v428h-181v45h181z" />
    <glyph glyph-name="bullet" unicode="&#x2022;" 
d="M499 377q0 -79 -55 -133.5t-133 -54.5q-79 0 -134 55t-55 133q0 79 55 134t134 55q78 0 133 -54t55 -135z" />
    <glyph glyph-name="ellipsis" unicode="&#x2026;" horiz-adv-x="1000" 
d="M208 34q0 -17 -12 -29t-29 -12t-29 12t-12 29t12 29t29 12t29 -12t12 -29zM541 34q0 -17 -12 -29t-29 -12t-29 12t-12 29t12 29t29 12t29 -12t12 -29zM874 34q0 -17 -12 -29t-29 -12t-29 12t-12 29t12 29t29 12t29 -12t12 -29z" />
    <glyph glyph-name="perthousand" unicode="&#x2030;" horiz-adv-x="1034" 
d="M92 1l446 770l33 -17l-448 -771zM332 612q0 -63 -44 -105t-108 -42q-65 0 -108.5 42.5t-43.5 104.5q0 63 43 106t109 43q64 0 108 -42.5t44 -106.5zM180 507q46 0 78 31t32 74q0 45 -33 76t-78 31q-43 0 -76 -31.5t-33 -75.5q0 -43 32 -74t78 -31zM636 140
q0 -63 -44 -105t-108 -42q-65 0 -108.5 42.5t-43.5 104.5q0 64 43.5 106.5t108.5 42.5q64 0 108 -42.5t44 -106.5zM1006 140q0 -63 -44 -105t-108 -42q-65 0 -108.5 42.5t-43.5 104.5q0 63 43.5 106t108.5 43q64 0 108 -42.5t44 -106.5zM484 35q46 0 78 31t32 74
q0 45 -33 76t-78 31q-44 0 -76.5 -31.5t-32.5 -75.5q0 -43 32 -74t78 -31zM854 35q46 0 78 31t32 74q0 45 -33 76t-78 31q-44 0 -76.5 -31.5t-32.5 -75.5q0 -43 32 -74t78 -31z" />
    <glyph glyph-name="guilsinglleft" unicode="&#x2039;" horiz-adv-x="277" 
d="M35 320l146 169l29 -27l-121 -142l121 -142l-29 -27z" />
    <glyph glyph-name="guilsinglright" unicode="&#x203a;" horiz-adv-x="277" 
d="M67 462l29 27l146 -169l-146 -169l-29 27l121 142z" />
    <glyph glyph-name="fraction" unicode="&#x2044;" horiz-adv-x="129" 
d="M-175 1l447 771l32 -18l-447 -771z" />
    <glyph glyph-name="Euro" unicode="&#x20ac;" 
d="M569 737l-19 -44q-53 27 -130 27q-95 0 -162.5 -69t-90.5 -190h322l-13 -42h-313q-4 -24 -4 -55q0 -24 3 -48h269l-13 -42h-252q13 -104 84 -170.5t168 -66.5q84 0 143 39l21 -41q-64 -43 -172 -43q-116 0 -198 79t-100 203h-76l13 42h57q-2 20 -2 49q0 35 4 54h-71
l13 42h62q26 137 111 220.5t200 83.5q82 0 146 -28z" />
    <glyph glyph-name="uni20B9" unicode="&#x20b9;" 
d="M111 560v45h289q-23 104 -141 104h-148v45h479v-45h-202q48 -34 61 -104h141v-45h-137v-5q0 -94 -59 -141t-163 -47h-56l316 -367h-65l-315 367v45h116q178 0 178 142v6h-294z" />
    <glyph glyph-name="uni20BA" unicode="&#x20ba;" 
d="M159 0v328l-100 -44v49l100 44v113l-100 -44v49l100 44v215h48v-194l230 101v-49l-230 -101v-113l230 101v-49l-230 -101v-310q42 -4 57 -4q80 0 139 50.5t87.5 124.5t33.5 162h48q-4 -76 -25 -143.5t-58.5 -121.5t-95.5 -85.5t-129 -31.5q-38 0 -105 10z" />
    <glyph glyph-name="afii61289" unicode="&#x2113;" horiz-adv-x="500" 
d="M394 76l23 -30q-62 -56 -134 -56q-115 0 -115 133v130l-66 -72l-25 33l91 89v279q0 88 30 135.5t87 47.5q52 0 83 -35.5t31 -97.5q0 -150 -183 -338v-159q0 -102 80 -102q49 0 98 43zM349 627q0 43 -16.5 69t-47.5 26q-29 0 -49 -33t-20 -95v-249q133 157 133 282z" />
    <glyph glyph-name="trademark" unicode="&#x2122;" horiz-adv-x="940" 
d="M58 754h320v-42h-139v-379h-42v379h-139v42zM461 754h72l137 -327h2l139 327h72v-421h-42v379h-4l-165 -379h-2l-163 379h-4v-379h-42v421z" />
    <glyph glyph-name="Omega" unicode="&#x2126;" horiz-adv-x="817" 
d="M747 0h-258v194q97 14 154 90.5t57 181.5q0 127 -87 210t-209 83q-130 0 -212.5 -86.5t-82.5 -207.5q0 -109 59.5 -185t152.5 -86v-194h-258v42h219v119q-101 26 -160 109.5t-59 194.5q0 147 101.5 242t240.5 95q143 0 242.5 -98t99.5 -236q0 -119 -59 -197.5
t-160 -109.5v-119h219v-42z" />
    <glyph glyph-name="estimated" unicode="&#x212e;" horiz-adv-x="903" 
d="M832 330h-617q-5 0 -5 -5v-176q0 -20 7 -28q79 -99 232 -99q134 0 249 108h67q-59 -70 -129 -101.5t-184 -31.5q-176 0 -279 97t-103 238q0 68 26.5 131t74 112t120.5 78.5t159 29.5q105 0 182.5 -31.5t119 -84.5t61 -112t19.5 -125zM692 355v180q0 13 -10 25
q-43 54 -107.5 76.5t-127.5 22.5q-134 0 -228 -97q-9 -9 -9 -26v-181q0 -5 5 -5h472q5 0 5 5z" />
    <glyph glyph-name="partialdiff" unicode="&#x2202;" horiz-adv-x="477" 
d="M434 365q0 -165 -54 -271t-162 -106q-81 0 -132.5 65.5t-51.5 155.5q0 91 51.5 150.5t132.5 59.5q102 0 173 -95v49q0 134 -47 219.5t-138 85.5q-55 0 -113 -45l-23 28q65 53 135 53q109 0 169 -98.5t60 -250.5zM386 281q-68 101 -165 101q-68 0 -107.5 -51t-39.5 -123
q0 -73 40.5 -129t104.5 -56q70 0 118.5 75t48.5 183z" />
    <glyph glyph-name="Delta" unicode="&#x2206;" horiz-adv-x="718" 
d="M698 0h-681l315 775h45zM632 44l-277 676l-273 -676h550z" />
    <glyph glyph-name="product" unicode="&#x220f;" horiz-adv-x="713" 
d="M628 -214h-41v960h-461v-960h-42v1000h544v-1000z" />
    <glyph glyph-name="summation" unicode="&#x2211;" horiz-adv-x="603" 
d="M565 -214h-528v37l336 467l-321 459v37h502v-40h-450l320 -456l-336 -464h477v-40z" />
    <glyph glyph-name="minus" unicode="&#x2212;" 
d="M54 280h512v-48h-512v48z" />
    <glyph glyph-name="uni2215" unicode="&#x2215;" horiz-adv-x="129" 
d="M-175 1l447 771l32 -18l-447 -771z" />
    <glyph glyph-name="uni2219" unicode="&#x2219;" horiz-adv-x="310" 
d="M196 256q0 -17 -12 -29t-29 -12t-29 12t-12 29t12 29t29 12t29 -12t12 -29z" />
    <glyph glyph-name="radical" unicode="&#x221a;" horiz-adv-x="476" 
d="M477 782l-214 -998h-38l-176 362l-44 -22l-16 32l79 38l170 -354l200 942h39z" />
    <glyph glyph-name="infinity" unicode="&#x221e;" horiz-adv-x="734" 
d="M684 247q0 -62 -35 -98.5t-93 -36.5q-19 0 -41 5q-31 7 -73.5 39t-74.5 64q-16 -13 -42.5 -35.5t-38.5 -31.5t-30.5 -21t-36 -16t-39.5 -4q-58 0 -94 37.5t-36 96.5q0 57 35 95.5t91 38.5q80 0 191 -111q58 55 102 83.5t86 28.5q56 0 92.5 -38.5t36.5 -95.5zM647 245
q0 41 -24 69.5t-66 28.5q-36 0 -72 -23.5t-93 -75.5q2 0 5 -4t5 -5q89 -86 154 -86q41 0 66 26.5t25 69.5zM342 244q-45 46 -90 72.5t-78 26.5q-38 0 -62.5 -28t-24.5 -70q0 -43 25 -69t67 -26q38 0 73.5 22.5t89.5 71.5z" />
    <glyph glyph-name="integral" unicode="&#x222b;" horiz-adv-x="544" 
d="M384 747q0 -12 -8 -20t-21 -8q-15 0 -26.5 16.5t-17.5 16.5q-10 0 -17.5 -9t-11.5 -28.5t-6.5 -37.5t-4 -49t-1.5 -49v-50v-506q0 -54 -3.5 -90.5t-13.5 -73t-32 -55t-55 -18.5q-18 0 -32 10.5t-14 27.5q0 12 8 19.5t19 7.5q14 0 26.5 -15.5t15.5 -15.5q40 0 40 171v565
q0 120 21 175t82 55q22 0 37 -10t15 -29z" />
    <glyph glyph-name="approxequal" unicode="&#x2248;" 
d="M492 396h37q-4 -49 -31 -83t-74 -34q-33 0 -119 32q-86 30 -109 30q-28 0 -45.5 -20t-21.5 -48h-39q7 51 32.5 84.5t73.5 33.5q35 0 117 -30q86 -32 112 -32q52 0 67 67zM491 251h38q-7 -50 -32.5 -83.5t-73.5 -33.5q-39 0 -118 31q-83 31 -109 31q-28 0 -45.5 -20
t-21.5 -48h-39q7 51 32 85t73 34q35 0 118 -31t112 -31q53 0 66 66z" />
    <glyph glyph-name="notequal" unicode="&#x2260;" 
d="M581 144h-316l-84 -157l-36 20l73 137h-179v41h201l86 163h-287v42h311l83 158l37 -20l-74 -138h185v-42h-207l-86 -163h293v-41z" />
    <glyph glyph-name="lessequal" unicode="&#x2264;" 
d="M581 70l-542 218v45l542 218v-45l-487 -195l487 -194v-47zM581 -18h-542v42h542v-42z" />
    <glyph glyph-name="greaterequal" unicode="&#x2265;" 
d="M581 288l-542 -218v47l485 194l-485 195v45l542 -218v-45zM581 -18h-542v42h542v-42z" />
    <glyph glyph-name="lozenge" unicode="&#x25ca;" horiz-adv-x="600" 
d="M488 353l-170 -391h-36l-169 391l169 390h36zM446 353l-147 341l-145 -341l145 -343z" />
    <glyph glyph-name="grave.cap" horiz-adv-x="313" 
d="M75 952l61 19l101 -147l-38 -17z" />
    <glyph glyph-name="acute.cap" horiz-adv-x="313" 
d="M75 824l101 147l61 -19l-124 -145z" />
    <glyph glyph-name="circumflex.cap" horiz-adv-x="426" 
d="M75 845l138 106l138 -106l-38 -29l-100 77l-102 -77z" />
    <glyph glyph-name="caron.cap" horiz-adv-x="426" 
d="M75 923l38 28l100 -76l102 76l36 -28l-138 -107z" />
    <glyph glyph-name="tilde.cap" horiz-adv-x="439" 
d="M334 931l29 -22q-7 -27 -30 -46t-51 -19q-19 0 -64.5 20t-68.5 20q-31 0 -44 -41l-30 22q11 27 31.5 45.5t46.5 18.5q24 0 71 -19.5t62 -19.5q34 0 48 41z" />
    <glyph glyph-name="dieresis.cap" horiz-adv-x="421" 
d="M157 891q0 -17 -11.5 -28.5t-28.5 -11.5t-28.5 11.5t-11.5 28.5t11.5 28.5t28.5 11.5t28.5 -11.5t11.5 -28.5zM344 891q0 -17 -11.5 -28.5t-28.5 -11.5t-28.5 11.5t-11.5 28.5t11.5 28.5t28.5 11.5t28.5 -11.5t11.5 -28.5z" />
    <glyph glyph-name="macron.cap" horiz-adv-x="456" 
d="M75 931h305v-45h-305v45z" />
    <glyph glyph-name="breve.cap" horiz-adv-x="434" 
d="M75 931h44q19 -61 98 -61t98 61h43q-5 -47 -44.5 -76.5t-96.5 -29.5q-58 0 -97.5 30t-44.5 76z" />
    <glyph glyph-name="ring.cap" horiz-adv-x="324" 
d="M249 884q0 -36 -25.5 -61.5t-61.5 -25.5t-61.5 25.5t-25.5 61.5t25.5 61.5t61.5 25.5t61.5 -25.5t25.5 -61.5zM162 837q20 0 33.5 13.5t13.5 33.5t-13.5 33.5t-33.5 13.5t-33.5 -13.5t-13.5 -33.5t13.5 -33.5t33.5 -13.5z" />
    <glyph glyph-name="hungarumlaut.cap" horiz-adv-x="446" 
d="M76 824l101 147l61 -19l-124 -145zM209 824l101 147l61 -19l-124 -145z" />
    <glyph glyph-name="dotaccent.cap" horiz-adv-x="313" 
d="M197 891q0 -17 -11.5 -28.5t-28.5 -11.5t-28.5 11.5t-11.5 28.5t11.5 28.5t28.5 11.5t28.5 -11.5t11.5 -28.5z" />
    </font>
</defs>
</svg>
