<?xml version="1.0" standalone="no"?>
<!DOCTYPE svg PUBLIC "-//W3C//DTD SVG 1.1//EN" "http://www.w3.org/Graphics/SVG/1.1/DTD/svg11.dtd" >
<svg xmlns="http://www.w3.org/2000/svg" xmlns:xlink="http://www.w3.org/1999/xlink" version="1.1">
<metadata>
Created by FontForge 20170731 at Fri Aug 29 17:12:00 2014
 By Aleksey,,,
Copyright (c) 2014 Monotype Imaging Inc. All rights reserved.
</metadata>
<defs>
<font id="FuturaLTPro-Book" horiz-adv-x="616" >
  <font-face 
    font-family="Futura LT Pro Book"
    font-weight="400"
    font-stretch="normal"
    units-per-em="1000"
    panose-1="2 11 5 2 2 2 4 2 3 3"
    ascent="825"
    descent="-175"
    x-height="470"
    cap-height="754"
    bbox="-161 -293 1178 1052"
    underline-thickness="50"
    underline-position="-200"
    unicode-range="U+000D-FB02"
  />
<missing-glyph horiz-adv-x="512" 
d="M0 718h512v-718h-512v718zM50 50h412v617h-412v-617zM383 478q0 -65 -63 -120q-35 -31 -42 -51t-7 -73h-46q-2 14 -2 31q0 37 12.5 65.5t48.5 61.5q48 44 48 82q0 35 -22.5 60t-53.5 25q-70 0 -82 -95l-50 8q6 67 41 102t94 35q54 0 89 -36t35 -95zM222 117v67h56v-67
h-56z" />
    <glyph glyph-name="IJ" unicode="IJ" horiz-adv-x="547" 
d="M78 754h84v-754h-84v754zM385 754h84v-633q0 -83 -36 -134q-46 -65 -132 -65q-66 0 -134 56l47 65q27 -25 46 -34t43 -9q40 0 61 33t21 113v608z" />
    <glyph glyph-name="ij" unicode="ij" horiz-adv-x="482" 
d="M91 470h80v-470h-80v470zM188 649q0 -26 -16.5 -42.5t-40.5 -16.5t-40.5 16.5t-16.5 42.5q0 22 17 38.5t40 16.5t40 -16.5t17 -38.5zM311 470h80v-734h-80v734zM408 649q0 -26 -16.5 -42.5t-40.5 -16.5t-40.5 16.5t-16.5 42.5q0 22 17 38.5t40 16.5t40 -16.5t17 -38.5z
" />
    <glyph glyph-name="napostrophe" unicode="&#x22;n" horiz-adv-x="528" 
d="M85 752l87 -17l-99 -188l-55 16zM452 284v-284h-80v274q0 77 -24 106t-75 29q-60 0 -88.5 -40.5t-28.5 -137.5v-231h-80v470h80v-57h2q51 70 134 70q160 0 160 -199z" />
    <glyph glyph-name="fi" unicode="fi" horiz-adv-x="519" 
d="M270 828v-81q-35 11 -54 11q-35 -1 -50 -20t-15 -79v-189h119v-74h-119v-396h-80v396h-44v74h44v209q0 67 22 102q35 55 120 57q29 0 57 -10zM348 470h80v-470h-80v470zM445 649q0 -26 -16.5 -42.5t-40.5 -16.5t-40.5 16.5t-16.5 42.5q0 22 17 38.5t40 16.5t40 -16.5
t17 -38.5z" />
    <glyph glyph-name="fl" unicode="fl" horiz-adv-x="501" 
d="M270 828v-81q-35 11 -54 11q-35 -1 -50 -20t-15 -79v-189h119v-74h-119v-396h-80v396h-44v74h44v209q0 67 22 102q35 55 120 57q29 0 57 -10zM348 825h80v-825h-80v825z" />
    <glyph glyph-name=".notdef" horiz-adv-x="512" 
d="M0 718h512v-718h-512v718zM50 50h412v617h-412v-617zM383 478q0 -65 -63 -120q-35 -31 -42 -51t-7 -73h-46q-2 14 -2 31q0 37 12.5 65.5t48.5 61.5q48 44 48 82q0 35 -22.5 60t-53.5 25q-70 0 -82 -95l-50 8q6 67 41 102t94 35q54 0 89 -36t35 -95zM222 117v67h56v-67
h-56z" />
    <glyph glyph-name=".null" horiz-adv-x="0" 
 />
    <glyph glyph-name=".null" horiz-adv-x="0" 
 />
    <glyph glyph-name="nonmarkingreturn" horiz-adv-x="333" 
 />
    <glyph glyph-name="CR" unicode="&#xd;" horiz-adv-x="308" 
 />
    <glyph glyph-name="space" unicode=" " horiz-adv-x="308" 
 />
    <glyph glyph-name="exclam" unicode="!" horiz-adv-x="338" 
d="M128 754h82v-601h-82v601zM225 44q0 -23 -16.5 -40t-39.5 -17q-22 0 -39 16.5t-17 40.5q0 22 16.5 38.5t39.5 16.5t39.5 -16.5t16.5 -38.5z" />
    <glyph glyph-name="quotedbl" unicode="&#x22;" horiz-adv-x="457" 
d="M102 754h94l-18 -328h-58zM261 754h94l-18 -328h-58z" />
    <glyph glyph-name="numbersign" unicode="#" 
d="M236 754h77l-36 -204h124l35 204h79l-35 -204h92v-78h-105l-29 -171h101v-78h-115l-40 -223h-76l39 223h-123l-42 -223h-75l39 223h-102v78h115l29 171h-107v78h119zM389 472h-123l-30 -171h124z" />
    <glyph glyph-name="dollar" unicode="$" 
d="M290 864h66v-103q51 -7 93 -37.5t65 -76.5l-66 -43q-37 66 -92 77v-247q100 -41 143 -90.5t43 -122.5q0 -82 -51.5 -145.5t-134.5 -80.5v-110h-66v104q-80 4 -140.5 59.5t-75.5 134.5l81 23q8 -55 46 -94t89 -43v305q-95 39 -136 85.5t-41 112.5q0 73 48 124.5t129 64.5
v103zM290 463v219q-41 -8 -67 -40.5t-26 -72.5q0 -63 93 -106zM356 344v-268q48 17 75 55.5t27 87.5q0 39 -24 69t-78 56z" />
    <glyph glyph-name="percent" unicode="%" horiz-adv-x="797" 
d="M368 602q0 -68 -49 -116t-119 -48t-119 47.5t-49 116.5t49.5 117t118.5 48q70 0 119 -48.5t49 -116.5zM158 13l439 754l40 -24l-436 -756zM200 502q42 0 73 30t31 70t-30.5 70.5t-73.5 30.5q-42 0 -73 -29.5t-31 -71.5q0 -40 31 -70t73 -30zM766 151q0 -68 -49 -116
t-119 -48t-119 47.5t-49 116.5t49.5 117t118.5 48q70 0 119 -48.5t49 -116.5zM598 51q42 0 73 30t31 70t-30.5 70.5t-73.5 30.5q-42 0 -73 -29.5t-31 -71.5q0 -40 31 -70t73 -30z" />
    <glyph glyph-name="ampersand" unicode="&#x26;" horiz-adv-x="695" 
d="M483 619q0 -48 -28 -90.5t-105 -97.5l159 -203l85 99l61 -50l-96 -112l128 -165h-106l-81 106q-130 -119 -241 -119q-89 0 -154.5 59.5t-65.5 150.5q0 43 15 79.5t46 68t59 52t74 50.5q-46 61 -60.5 94t-14.5 66q0 70 46.5 115t118.5 45q67 0 113.5 -43t46.5 -105z
M265 543l37 -51q46 33 61 47q40 37 40 80q0 33 -24 55t-59 22q-33 0 -57.5 -24t-24.5 -59q0 -33 27 -70zM254 63q41 0 85.5 23t110.5 83l-168 216q-42 -27 -62.5 -42t-48 -40t-39 -50t-11.5 -54q0 -53 40 -94.5t93 -41.5z" />
    <glyph glyph-name="quotesingle" unicode="'" horiz-adv-x="289" 
d="M98 754h94l-18 -328h-58z" />
    <glyph glyph-name="parenleft" unicode="(" horiz-adv-x="287" 
d="M184 788l71 -34q-80 -213 -80 -480t80 -480l-71 -34q-91 191 -91 514q0 153 24.5 290t66.5 224z" />
    <glyph glyph-name="parenright" unicode=")" horiz-adv-x="287" 
d="M32 754l71 34q42 -87 66.5 -223t24.5 -291q0 -323 -91 -514l-71 34q80 213 80 480t-80 480z" />
    <glyph glyph-name="asterisk" unicode="*" horiz-adv-x="592" 
d="M259 754h75l-6 -140l132 49l24 -72l-136 -38l88 -110l-62 -45l-78 118l-78 -118l-61 45l88 110l-136 38l24 72l132 -49z" />
    <glyph glyph-name="plus" unicode="+" 
d="M269 498h78v-203h203v-78h-203v-203h-78v203h-203v78h203v203z" />
    <glyph glyph-name="comma" unicode="," horiz-adv-x="308" 
d="M58 -150l93 260l74 -26l-113 -256z" />
    <glyph glyph-name="hyphen" unicode="-" horiz-adv-x="208" 
d="M2 278h205v-74h-205v74z" />
    <glyph glyph-name="period" unicode="." horiz-adv-x="308" 
d="M210 44q0 -23 -16.5 -40t-39.5 -17t-39.5 17t-16.5 40q0 22 16.5 38.5t39.5 16.5t39.5 -16.5t16.5 -38.5z" />
    <glyph glyph-name="slash" unicode="/" horiz-adv-x="570" 
d="M18 -127l468 952l66 -30l-469 -952z" />
    <glyph glyph-name="zero" unicode="0" 
d="M578 376q0 -102 -33 -190t-96 -143.5t-141 -55.5q-118 0 -194 116t-76 273q0 66 17 133t48.5 125.5t85 95.5t119.5 37q67 0 121 -38.5t85.5 -98.5t47.5 -126t16 -128zM308 65q49 0 87 32.5t58.5 82.5t30.5 101t10 98q0 69 -18 137t-62.5 120.5t-106.5 52.5q-47 0 -84 -31
t-58 -79.5t-32 -100t-11 -99.5q0 -77 20.5 -147.5t64 -118.5t101.5 -48z" />
    <glyph glyph-name="one" unicode="1" 
d="M202 754h165v-754h-84v676h-125z" />
    <glyph glyph-name="two" unicode="2" 
d="M529 544q0 -93 -63 -166l-255 -300h318v-78h-488l345 408q59 69 59 135q0 63 -44 104.5t-106 41.5q-66 0 -108 -43t-44 -112h-84q3 102 69.5 167.5t163.5 65.5q98 0 167.5 -64t69.5 -159z" />
    <glyph glyph-name="three" unicode="3" 
d="M504 562q0 -53 -25 -96.5t-72 -69.5q51 -22 79.5 -72t28.5 -113q0 -97 -68 -160.5t-167 -63.5q-95 0 -159 59.5t-64 149.5h82q3 -57 45.5 -94t99.5 -37q61 0 104 43.5t43 107.5q0 66 -40.5 103.5t-114.5 37.5h-5v78q149 4 149 122q0 59 -36.5 95.5t-95.5 36.5
q-54 0 -86.5 -32.5t-37.5 -88.5h-83q10 95 64.5 147t144.5 52q93 0 153.5 -58t60.5 -147z" />
    <glyph glyph-name="four" unicode="4" 
d="M6 122l468 674h2v-596h93v-78h-93v-122h-84v122h-386zM392 541h-2l-237 -341h239v341z" />
    <glyph glyph-name="five" unicode="5" 
d="M223 754h300v-78h-241l-49 -161l47 4q106 0 177.5 -74.5t71.5 -188.5q0 -116 -80 -192.5t-197 -76.5q-150 0 -231 135l67 48q28 -50 72 -77.5t95 -27.5q83 0 136.5 55t53.5 138q0 78 -53.5 130.5t-134.5 52.5q-68 0 -143 -48z" />
    <glyph glyph-name="six" unicode="6" 
d="M363 767l63 -47l-174 -234l2 -2q29 11 66 11q102 0 173 -73.5t71 -175.5q0 -108 -76.5 -183.5t-183.5 -75.5t-183.5 75.5t-76.5 182.5q-1 84 68 180zM304 65q72 0 124 51.5t52 126.5q0 72 -50.5 123t-126.5 51q-73 0 -124 -50t-51 -124q0 -75 51.5 -126.5t124.5 -51.5z
" />
    <glyph glyph-name="seven" unicode="7" 
d="M51 754h556l-506 -767l-66 39l428 650h-412v78z" />
    <glyph glyph-name="eight" unicode="8" 
d="M519 557q0 -50 -25 -95.5t-67 -69.5q53 -24 82 -72.5t29 -108.5q0 -96 -65 -160t-165 -64q-98 0 -164 63.5t-66 160.5q0 59 29.5 108t81.5 73q-42 24 -67 69t-25 96q0 90 61 150t150 60q88 0 149.5 -60t61.5 -150zM308 427q55 0 93 39.5t38 92.5t-38.5 91.5t-92.5 38.5
q-53 0 -92 -38t-39 -92q0 -55 38.5 -93.5t92.5 -38.5zM308 65q60 0 103 42.5t43 102.5t-43 102.5t-104 42.5q-58 0 -101.5 -42.5t-43.5 -102.5t43 -102.5t103 -42.5z" />
    <glyph glyph-name="nine" unicode="9" 
d="M565 510q0 -85 -74 -187l-246 -336l-63 43l174 239l-2 2q-35 -10 -65 -10q-103 0 -173.5 73.5t-70.5 175.5q0 105 76 181t184 76t184 -76t76 -181zM305 339q73 0 124.5 50.5t51.5 123.5q0 72 -51 124t-126 52q-72 0 -123.5 -51.5t-51.5 -124.5t51.5 -123.5t124.5 -50.5z
" />
    <glyph glyph-name="colon" unicode=":" horiz-adv-x="308" 
d="M210 44q0 -23 -16.5 -40t-39.5 -17t-39.5 17t-16.5 40q0 22 16.5 38.5t39.5 16.5t39.5 -16.5t16.5 -38.5zM210 428q0 -23 -16.5 -40t-39.5 -17t-39.5 17t-16.5 40q0 22 16.5 38.5t39.5 16.5t39.5 -16.5t16.5 -38.5z" />
    <glyph glyph-name="semicolon" unicode=";" horiz-adv-x="308" 
d="M60 -150l93 260l74 -26l-113 -256zM235 428q0 -23 -16.5 -40t-39.5 -17t-39.5 17t-16.5 40q0 22 16.5 38.5t39.5 16.5t39.5 -16.5t16.5 -38.5z" />
    <glyph glyph-name="less" unicode="&#x3c;" 
d="M550 498v-85l-368 -157l368 -157v-85l-484 207v70z" />
    <glyph glyph-name="equal" unicode="=" 
d="M66 373h484v-78h-484v78zM66 217h484v-78h-484v78z" />
    <glyph glyph-name="greater" unicode="&#x3e;" 
d="M66 498l484 -207v-70l-484 -207v85l368 157l-368 157v85z" />
    <glyph glyph-name="question" unicode="?" horiz-adv-x="488" 
d="M426 587q0 -95 -68 -145q-9 -6 -20 -12t-28 -12l-25.5 -9t-31.5 -10t-27 -8q-64 -20 -64 -79q0 -33 23.5 -56.5t58.5 -23.5q36 0 58.5 26t22.5 70h81v-8q0 -70 -47 -117.5t-116 -47.5t-116 47t-47 116q0 61 38.5 99t130.5 64q49 14 72 38.5t23 66.5q0 45 -29 74.5
t-74 29.5q-42 0 -70 -29t-28 -71q0 -23 6 -47h-83l-4 55q0 71 52.5 120t131.5 49q77 0 128.5 -52t51.5 -128zM298 44q0 -23 -16.5 -40t-39.5 -17t-39.5 17t-16.5 40q0 22 16.5 38.5t39.5 16.5t39.5 -16.5t16.5 -38.5z" />
    <glyph glyph-name="at" unicode="@" horiz-adv-x="800" 
d="M765 452q0 -133 -65 -214.5t-146 -81.5q-48 0 -59 61q-60 -61 -136 -61q-69 0 -118.5 54.5t-49.5 128.5q0 95 57.5 165.5t146.5 70.5q79 0 133 -70l14 61h71l-55 -282q-3 -15 -3 -28q0 -30 22 -30q38 0 77.5 66t39.5 147q0 115 -78.5 185.5t-200.5 70.5q-131 0 -219 -90
t-88 -228q0 -139 92 -228.5t233 -89.5q126 0 190 46l70 -51q-130 -67 -268 -67q-164 0 -276.5 111.5t-112.5 278.5q0 166 111 278t271 112q129 0 226 -78q57 -45 89 -106.5t32 -130.5zM369 226q67 0 101 51.5t34 117.5q0 50 -28 81t-76 31q-57 0 -98 -49.5t-41 -111.5
q0 -55 29 -87.5t79 -32.5z" />
    <glyph glyph-name="A" unicode="A" horiz-adv-x="699" 
d="M6 0l348 790l339 -790h-93l-89 214h-322l-91 -214h-92zM352 594l-129 -302h255z" />
    <glyph glyph-name="B" unicode="B" horiz-adv-x="568" 
d="M76 754h129q118 0 182.5 -52t64.5 -152q0 -97 -74 -147q65 -16 104 -69.5t39 -124.5q0 -100 -71.5 -154.5t-193.5 -54.5h-180v754zM160 676v-254q50 0 73 1q69 3 102 33t33 94q0 75 -40 100.5t-130 25.5h-38zM160 78h89q188 0 188 138q0 134 -199 134h-78v-272z" />
    <glyph glyph-name="C" unicode="C" horiz-adv-x="717" 
d="M651 693v-104q-98 100 -230 100q-123 0 -213.5 -92t-90.5 -220q0 -125 90.5 -218.5t215.5 -93.5q128 0 228 100v-104q-102 -74 -225 -74q-101 0 -191 49t-146 139t-56 199q0 164 116.5 278.5t276.5 114.5q132 0 225 -74z" />
    <glyph glyph-name="D" unicode="D" horiz-adv-x="678" 
d="M76 754h159q173 0 278 -92q124 -107 124 -288q0 -97 -44.5 -180t-125.5 -135q-92 -59 -233 -59h-158v754zM160 78h80q81 0 143.5 28t98 73t53.5 95.5t18 102.5q0 156 -123 246q-73 53 -199 53h-71v-598z" />
    <glyph glyph-name="E" unicode="E" horiz-adv-x="534" 
d="M76 754h391v-78h-307v-224h298v-78h-298v-296h307v-78h-391v754z" />
    <glyph glyph-name="F" unicode="F" horiz-adv-x="478" 
d="M76 754h343v-78h-259v-224h251v-78h-251v-374h-84v754z" />
    <glyph glyph-name="G" unicode="G" horiz-adv-x="820" 
d="M744 604l-61 -57q-101 142 -259 142q-126 0 -217 -92.5t-91 -222.5q0 -129 94.5 -219t207.5 -90q105 0 187 68.5t82 167.5h-224v78h314v-43q0 -146 -94 -240q-51 -51 -120 -80t-143 -29q-158 0 -273 113.5t-115 274.5q0 163 116 277.5t277 114.5q193 0 319 -163z" />
    <glyph glyph-name="H" unicode="H" horiz-adv-x="714" 
d="M80 754h84v-306h386v306h84v-754h-84v370h-386v-370h-84v754z" />
    <glyph glyph-name="I" unicode="I" horiz-adv-x="239" 
d="M78 754h84v-754h-84v754z" />
    <glyph glyph-name="J" unicode="J" horiz-adv-x="314" 
d="M152 754h84v-633q0 -83 -36 -134q-46 -65 -132 -65q-66 0 -134 56l47 65q27 -25 46 -34t43 -9q40 0 61 33t21 113v608z" />
    <glyph glyph-name="K" unicode="K" horiz-adv-x="611" 
d="M76 754h84v-323l321 323h113l-354 -351l366 -403h-116l-309 346l-21 -21v-325h-84v754z" />
    <glyph glyph-name="L" unicode="L" horiz-adv-x="375" 
d="M76 754h84v-676h208v-78h-292v754z" />
    <glyph glyph-name="M" unicode="M" horiz-adv-x="896" 
d="M21 0l153 797l274 -633l275 633l153 -797h-86l-97 510h-2l-243 -541l-242 541h-2l-97 -510h-86z" />
    <glyph glyph-name="N" unicode="N" horiz-adv-x="834" 
d="M81 0v786l588 -616v584h84v-788l-588 615v-581h-84z" />
    <glyph glyph-name="O" unicode="O" horiz-adv-x="862" 
d="M824 376q0 -160 -114.5 -274.5t-278.5 -114.5q-162 0 -277.5 114.5t-115.5 274.5t115 275.5t278 115.5t278 -115.5t115 -275.5zM431 65q128 0 218.5 92.5t90.5 219.5q0 128 -89.5 220t-220.5 92q-128 0 -218 -92t-90 -220t91 -220t218 -92z" />
    <glyph glyph-name="P" unicode="P" horiz-adv-x="503" 
d="M76 754h132q98 0 149 -23q52 -24 83.5 -74.5t31.5 -112.5q0 -93 -59 -152q-62 -62 -183 -62h-70v-330h-84v754zM160 676v-268h45q38 0 67 5t57 18t43.5 41.5t15.5 71.5q0 63 -35 95t-119 36q-23 1 -74 1z" />
    <glyph glyph-name="Q" unicode="Q" horiz-adv-x="862" 
d="M824 374q0 -149 -109 -266l113 -115h-107l-63 68q-99 -74 -227 -74q-162 0 -277.5 114t-115.5 275q0 160 115.5 275.5t277.5 115.5q164 0 278.5 -116t114.5 -277zM431 65q93 0 168 56l-182 183h110l130 -136q83 87 83 209q0 128 -89.5 220t-220.5 92q-128 0 -218 -92
t-90 -220q0 -127 91 -219.5t218 -92.5z" />
    <glyph glyph-name="R" unicode="R" horiz-adv-x="542" 
d="M76 754h115q270 0 270 -208q0 -87 -51 -144t-138 -64l240 -338h-103l-228 331h-21v-331h-84v754zM160 676v-271h37q180 0 180 135q0 63 -36 99.5t-137 36.5h-44z" />
    <glyph glyph-name="S" unicode="S" horiz-adv-x="559" 
d="M485 650l-67 -43q-47 82 -129 82q-54 0 -90 -33t-36 -84q0 -30 19 -54q12 -15 34 -29.5t38.5 -22.5t52.5 -24t48 -21q74 -34 115.5 -79.5t41.5 -121.5q0 -97 -69 -165t-168 -68q-89 0 -152.5 52.5t-82.5 142.5l82 23q10 -63 52 -101.5t99 -38.5q63 0 109 43t46 104
q0 60 -39 92t-137 74q-96 40 -134.5 86.5t-38.5 110.5q0 84 61.5 138t149.5 54q131 0 195 -117z" />
    <glyph glyph-name="T" unicode="T" horiz-adv-x="470" 
d="M10 754h450v-78h-184v-676h-84v676h-182v78z" />
    <glyph glyph-name="U" unicode="U" horiz-adv-x="685" 
d="M74 754h84v-465q0 -82 16.5 -123.5t63.5 -70.5q49 -30 105 -30t104 29.5t64 69.5q17 42 17 127v463h84v-481q0 -103 -35 -160q-36 -58 -99 -92t-135 -34q-51 0 -102 19t-86 52q-43 41 -62 86t-19 131v479z" />
    <glyph glyph-name="V" unicode="V" horiz-adv-x="624" 
d="M6 754h91l215 -575l215 575h91l-306 -799z" />
    <glyph glyph-name="W" unicode="W" horiz-adv-x="1091" 
d="M302 189l244 604l244 -604l198 565h91l-289 -793l-244 607l-244 -607l-289 793h91z" />
    <glyph glyph-name="X" unicode="X" horiz-adv-x="564" 
d="M32 754h96l154 -284l154 284h96l-204 -364l223 -390h-96l-173 310l-173 -310h-96l223 390z" />
    <glyph glyph-name="Y" unicode="Y" horiz-adv-x="593" 
d="M8 754h97l192 -336l192 336h97l-247 -430v-324h-84v324z" />
    <glyph glyph-name="Z" unicode="Z" horiz-adv-x="586" 
d="M66 754h499l-412 -676h401v-78h-540l411 676h-359v78z" />
    <glyph glyph-name="bracketleft" unicode="[" horiz-adv-x="315" 
d="M104 788h190v-74h-108v-880h108v-74h-190v1028z" />
    <glyph glyph-name="backslash" unicode="\" horiz-adv-x="570" 
d="M18 795l66 30l468 -825l-65 -30z" />
    <glyph glyph-name="bracketright" unicode="]" horiz-adv-x="315" 
d="M21 788h190v-1028h-190v74h108v880h-108v74z" />
    <glyph glyph-name="asciicircum" unicode="^" 
d="M272 754h72l206 -432h-89l-153 328l-155 -328h-87z" />
    <glyph glyph-name="underscore" unicode="_" horiz-adv-x="500" 
d="M0 -75h500v-50h-500v50z" />
    <glyph glyph-name="grave" unicode="`" horiz-adv-x="358" 
d="M78 706l84 38l119 -164l-50 -28z" />
    <glyph glyph-name="a" unicode="a" horiz-adv-x="577" 
d="M423 403h2v67h80v-470h-80v65h-2q-61 -78 -162 -78q-98 0 -161.5 71.5t-63.5 175.5q0 108 63 178.5t163 70.5q99 0 161 -80zM272 61q71 0 114 49.5t43 128.5q0 74 -44 122t-114 48q-65 0 -109 -49.5t-44 -119.5q0 -76 43 -127.5t111 -51.5z" />
    <glyph glyph-name="b" unicode="b" horiz-adv-x="577" 
d="M72 825h80v-422h2q61 80 161 80t163 -71t63 -177q0 -104 -63 -176t-162 -72q-102 0 -162 78h-2v-65h-80v825zM302 61q71 0 114 49.5t43 128.5q0 74 -43.5 122t-115.5 48q-65 0 -108.5 -49.5t-43.5 -119.5q0 -76 42.5 -127.5t111.5 -51.5z" />
    <glyph glyph-name="c" unicode="c" horiz-adv-x="476" 
d="M425 436v-106h-2q-61 79 -146 79q-71 0 -118.5 -50.5t-47.5 -123.5t46 -123.5t116 -50.5q89 0 153 81h2v-107q-73 -48 -149 -48q-106 0 -178 70.5t-72 177.5q0 104 73 176t178 72q78 0 145 -47z" />
    <glyph glyph-name="d" unicode="d" horiz-adv-x="577" 
d="M425 825h80v-825h-80v65h-2q-60 -78 -162 -78q-97 0 -161 72t-64 175q0 108 63 178.5t163 70.5t161 -80h2v422zM272 61q71 0 114 49.5t43 128.5q0 74 -43 122t-115 48q-66 0 -109.5 -49t-43.5 -120q0 -76 42 -127.5t112 -51.5z" />
    <glyph glyph-name="e" unicode="e" horiz-adv-x="519" 
d="M262 483q104 0 164 -71.5t60 -174.5q0 -8 -1 -19h-369q1 -69 45 -113t109 -44q89 0 143 97l68 -39q-71 -132 -217 -132q-101 0 -165.5 68.5t-64.5 173.5q0 113 62.5 183.5t165.5 70.5zM120 286h281q-9 54 -48 88.5t-90 34.5q-50 0 -93 -35.5t-50 -87.5z" />
    <glyph glyph-name="f" unicode="f" horiz-adv-x="274" 
d="M282 828v-81q-35 11 -54 11q-35 -1 -50 -20t-15 -79v-189h119v-74h-119v-396h-80v396h-44v74h44v209q0 67 22 102q35 55 120 57q29 0 57 -10z" />
    <glyph glyph-name="g" unicode="g" horiz-adv-x="580" 
d="M418 403h2v67h80v-487q0 -73 -26 -127q-26 -53 -80 -85.5t-124 -32.5q-100 0 -164 58.5t-67 157.5h80q0 -64 42.5 -103t108.5 -39q83 0 116.5 52.5t33.5 145.5v55h-2q-28 -36 -72 -57t-91 -21q-98 0 -161 71.5t-63 174.5q0 106 64.5 178t162.5 72q99 0 160 -80zM267 61
q71 0 114 49.5t43 128.5q0 74 -43.5 122t-114.5 48q-66 0 -109.5 -49.5t-43.5 -119.5q0 -76 42.5 -127.5t111.5 -51.5z" />
    <glyph glyph-name="h" unicode="h" horiz-adv-x="528" 
d="M76 825h80v-410l2 -2q51 70 134 70q160 0 160 -199v-284h-80v274q0 77 -24 106t-75 29q-59 0 -88 -40.5t-29 -136.5v-232h-80v825z" />
    <glyph glyph-name="i" unicode="i" horiz-adv-x="262" 
d="M91 470h80v-470h-80v470zM188 649q0 -26 -16.5 -42.5t-40.5 -16.5t-40.5 16.5t-16.5 42.5q0 22 17 38.5t40 16.5t40 -16.5t17 -38.5z" />
    <glyph glyph-name="j" unicode="j" horiz-adv-x="262" 
d="M91 470h80v-734h-80v734zM188 649q0 -26 -16.5 -42.5t-40.5 -16.5t-40.5 16.5t-16.5 42.5q0 22 17 38.5t40 16.5t40 -16.5t17 -38.5z" />
    <glyph glyph-name="k" unicode="k" horiz-adv-x="470" 
d="M72 825h80v-529l171 174h107l-201 -200l239 -270h-106l-189 214l-21 -21v-193h-80v825z" />
    <glyph glyph-name="l" unicode="l" horiz-adv-x="227" 
d="M74 825h80v-825h-80v825z" />
    <glyph glyph-name="m" unicode="m" horiz-adv-x="768" 
d="M401 405q20 37 57.5 57.5t83.5 20.5q74 0 112 -50t38 -142v-291h-80v279q0 72 -21 101t-65 29q-102 0 -102 -155v-254h-80v271q0 138 -84 138q-104 0 -104 -161v-248h-80v470h80v-51h2q41 64 113 64q42 0 76.5 -21t53.5 -57z" />
    <glyph glyph-name="n" unicode="n" horiz-adv-x="528" 
d="M452 284v-284h-80v274q0 77 -24 106t-75 29q-60 0 -88.5 -40.5t-28.5 -137.5v-231h-80v470h80v-57h2q51 70 134 70q160 0 160 -199z" />
    <glyph glyph-name="o" unicode="o" horiz-adv-x="562" 
d="M528 234q0 -103 -71.5 -175t-175.5 -72q-103 0 -175 71.5t-72 175.5q0 103 71.5 176t175.5 73t175.5 -73.5t71.5 -175.5zM281 61q73 0 120 50t47 124t-47.5 124t-120.5 50q-72 0 -119 -50t-47 -124t48 -124t119 -50z" />
    <glyph glyph-name="p" unicode="p" horiz-adv-x="577" 
d="M541 234q0 -107 -62.5 -177t-163.5 -70q-102 0 -161 79h-2v-330h-80v734h80v-67h2q60 80 162 80q98 0 161.5 -72.5t63.5 -176.5zM302 61q71 0 114 49.5t43 128.5q0 74 -43.5 122t-115.5 48q-65 0 -108.5 -49.5t-43.5 -119.5q0 -76 42.5 -127.5t111.5 -51.5z" />
    <glyph glyph-name="q" unicode="q" horiz-adv-x="577" 
d="M423 403h2v67h80v-734h-80v330h-2q-60 -79 -161 -79q-100 0 -163 69.5t-63 176.5q0 106 63.5 178t161.5 72q102 0 162 -80zM272 61q71 0 114 49.5t43 128.5q0 74 -43 122t-115 48q-65 0 -109 -49.5t-44 -119.5q0 -76 42.5 -127.5t111.5 -51.5z" />
    <glyph glyph-name="r" unicode="r" horiz-adv-x="335" 
d="M330 461l-38 -73q-30 21 -48 21q-92 0 -92 -169v-240h-80v470h80v-51h2q27 37 50 50.5t54 13.5q33 0 72 -22z" />
    <glyph glyph-name="s" unicode="s" horiz-adv-x="399" 
d="M333 396l-67 -35q-23 48 -64 48q-23 0 -40.5 -15.5t-17.5 -36.5q0 -22 19.5 -38.5t64.5 -33.5q65 -24 93 -50q41 -37 41 -95q0 -66 -46.5 -109.5t-112.5 -43.5q-58 0 -102.5 31.5t-63.5 87.5l71 30q18 -41 40.5 -58t55.5 -17t54.5 20.5t21.5 51.5t-22.5 49.5t-70.5 37.5
q-52 21 -74 38q-45 34 -45 92q0 57 40 95t100 38q39 0 74 -24t51 -63z" />
    <glyph glyph-name="t" unicode="t" horiz-adv-x="240" 
d="M80 639h80v-169h84v-74h-84v-396h-80v396h-49v74h49v169z" />
    <glyph glyph-name="u" unicode="u" horiz-adv-x="512" 
d="M70 470h80v-269q0 -79 25 -109.5t81 -30.5q54 0 80 29.5t26 106.5v273h80v-276q0 -207 -186 -207t-186 207v276z" />
    <glyph glyph-name="v" unicode="v" horiz-adv-x="463" 
d="M1 470h91l140 -316l140 316h90l-230 -501z" />
    <glyph glyph-name="w" unicode="w" horiz-adv-x="760" 
d="M233 152l146 354l147 -354l140 318h91l-233 -503l-145 350l-145 -350l-231 503h91z" />
    <glyph glyph-name="x" unicode="x" horiz-adv-x="498" 
d="M30 470h98l123 -160l123 160h100l-172 -220l195 -250h-97l-149 191l-150 -191h-100l200 250z" />
    <glyph glyph-name="y" unicode="y" horiz-adv-x="498" 
d="M-2 470h93l166 -337l152 337h91l-347 -734h-91l152 308z" />
    <glyph glyph-name="z" unicode="z" horiz-adv-x="519" 
d="M73 470h437l-338 -396h324v-74h-486l339 396h-276v74z" />
    <glyph glyph-name="braceleft" unicode="{" horiz-adv-x="334" 
d="M213 788h71v-74h-34q-27 0 -34.5 -13t-7.5 -55v-201q0 -54 -20.5 -100.5t-55.5 -70.5q35 -24 55.5 -70.5t20.5 -100.5v-210q0 -33 7.5 -46t31.5 -13h37v-74h-70q-32 0 -60 41.5t-28 92.5v196q0 81 -17.5 109.5t-57.5 42.5v64q42 15 58.5 44.5t16.5 108.5v192
q0 56 28.5 96.5t58.5 40.5z" />
    <glyph glyph-name="bar" unicode="|" horiz-adv-x="570" 
d="M246 786h78v-1000h-78v1000z" />
    <glyph glyph-name="braceright" unicode="}" horiz-adv-x="334" 
d="M50 788h70q31 0 59.5 -41t28.5 -97v-191q0 -79 16.5 -108.5t58.5 -44.5v-64q-40 -14 -57.5 -42.5t-17.5 -109.5v-198q0 -47 -27.5 -89.5t-60.5 -42.5h-70v74h35q25 0 33 12.5t8 44.5v212q0 54 20.5 100.5t55.5 70.5q-35 24 -55.5 70.5t-20.5 100.5v201q0 43 -8 55.5
t-36 12.5h-32v74z" />
    <glyph glyph-name="asciitilde" unicode="~" 
d="M343 282q46 -34 68 -34q20 0 39 27t32 70l68 -28q-51 -147 -139 -147q-39 0 -112 51q-70 47 -94 47q-40 0 -70 -96l-69 28q54 147 139 147q47 0 138 -65z" />
    <glyph glyph-name="uni00A0" unicode="&#xa0;" horiz-adv-x="308" 
 />
    <glyph glyph-name="exclamdown" unicode="&#xa1;" horiz-adv-x="338" 
d="M210 -284h-82v601h82v-601zM225 426q0 -22 -16.5 -38.5t-39.5 -16.5t-39.5 16.5t-16.5 38.5q0 25 16.5 41t39.5 16t39.5 -16.5t16.5 -40.5z" />
    <glyph glyph-name="cent" unicode="&#xa2;" 
d="M305 735h66v-104q63 -6 120 -44v-106h-2q-54 66 -118 76v-344q27 2 61 23t59 57h2v-107q-63 -42 -122 -47v-112h-66v113q-88 10 -149 81t-61 159q0 95 59.5 166.5t150.5 82.5v106zM305 214v341q-56 -10 -92 -59.5t-36 -109.5q0 -63 35.5 -111.5t92.5 -60.5z" />
    <glyph glyph-name="sterling" unicode="&#xa3;" 
d="M540 541l-82 -22q-1 80 -36.5 124t-98.5 44q-57 0 -98 -39.5t-41 -96.5q0 -48 40 -126q8 -15 20 -36t19 -34.5t10 -22.5h142v-64h-120q7 -30 7 -45q0 -51 -33 -108l81 -29q45 -16 69 -16q50 0 91 75l68 -41q-26 -56 -67 -86t-87 -30q-41 0 -122.5 29t-109.5 29
q-55 0 -90 -61l-65 44q58 95 146 97q32 45 32 93q0 27 -7 49h-127v64h100l-48 93q-35 68 -35 128q0 90 65 152t158 62q94 0 156 -62.5t63 -163.5z" />
    <glyph glyph-name="currency" unicode="&#xa4;" 
d="M472 492l42 42l36 -36l-40 -40q53 -84 53 -158q0 -75 -53 -158l40 -40l-36 -36l-42 42q-80 -58 -164 -58t-164 58l-42 -42l-36 36l40 40q-53 82 -53 158t53 158l-40 40l36 36l42 -42q80 58 164 58t164 -58zM308 114q78 0 134.5 56.5t56.5 132.5q0 79 -56 131t-136 52
q-77 0 -133.5 -51.5t-56.5 -129.5q0 -79 56.5 -135t134.5 -56z" />
    <glyph glyph-name="yen" unicode="&#xa5;" 
d="M19 754h97l192 -334l192 334h97l-155 -270h145v-64h-182l-55 -100h237v-64h-237v-256h-84v256h-237v64h237l-55 100h-182v64h145z" />
    <glyph glyph-name="brokenbar" unicode="&#xa6;" horiz-adv-x="570" 
d="M246 661h78v-250h-78v250zM246 161h78v-250h-78v250z" />
    <glyph glyph-name="section" unicode="&#xa7;" horiz-adv-x="592" 
d="M487 571h-80q-6 119 -100 119q-47 0 -76.5 -28t-29.5 -73q0 -33 17.5 -56t63.5 -42q8 -3 57 -20.5t73 -32.5q78 -50 78 -148q0 -107 -105 -161q88 -47 88 -146q0 -78 -52 -125t-134 -47q-175 0 -182 193h81q0 -57 26.5 -86.5t75.5 -29.5t76 26t27 74q0 40 -23 66t-82 46
q-96 34 -140 74t-44 117q0 118 105 163q-88 44 -88 141q0 75 55 123.5t132 48.5q49 0 93 -22.5t66 -68.5t22 -101v-4zM296 181q45 0 78 32.5t33 78.5q0 45 -32.5 77.5t-79.5 32.5q-45 0 -77 -32t-32 -78t32.5 -78.5t77.5 -32.5z" />
    <glyph glyph-name="dieresis" unicode="&#xa8;" horiz-adv-x="467" 
d="M189 651q0 -23 -16 -38.5t-38 -15.5q-23 0 -38.5 15.5t-15.5 38.5q0 22 15.5 38t38.5 16q22 0 38 -15.5t16 -38.5zM386 651q0 -22 -16 -38t-38 -16t-38 15.5t-16 38.5t15.5 38.5t38.5 15.5t38.5 -16t15.5 -38z" />
    <glyph glyph-name="copyright" unicode="&#xa9;" horiz-adv-x="800" 
d="M792 377q0 -105 -50.5 -194t-141 -142.5t-200.5 -53.5q-164 0 -278 113.5t-114 276.5q0 162 114 276t278 114q165 0 278.5 -114t113.5 -276zM400 47q137 0 234.5 97.5t97.5 232.5t-97.5 232.5t-235.5 97.5q-135 0 -233 -97t-98 -233q0 -135 98 -232.5t234 -97.5zM599 457
h-61q-9 42 -41.5 65t-82.5 23q-71 0 -113.5 -46.5t-42.5 -116.5q0 -71 43.5 -118.5t114.5 -47.5q98 0 122 91h61q-7 -67 -59.5 -109t-123.5 -42q-96 0 -157 63.5t-61 160.5q0 100 59.5 162.5t157.5 62.5q70 0 120.5 -39.5t63.5 -108.5z" />
    <glyph glyph-name="ordfeminine" unicode="&#xaa;" horiz-adv-x="346" 
d="M272 719h2v40h52v-282h-52v39h-2q-41 -47 -105 -47t-105 42.5t-41 105.5q0 65 41.5 107.5t105.5 42.5q62 0 104 -48zM174 513q47 0 74.5 30t27.5 77q0 46 -28 74.5t-75 28.5q-42 0 -71 -30t-29 -72q0 -46 28 -77t73 -31z" />
    <glyph glyph-name="guillemotleft" unicode="&#xab;" horiz-adv-x="500" 
d="M41 240l168 213l53 -42l-135 -171l135 -166l-53 -41zM211 240l168 213l53 -42l-135 -171l135 -166l-53 -41z" />
    <glyph glyph-name="logicalnot" unicode="&#xac;" 
d="M472 103v192h-406v78h484v-270h-78z" />
    <glyph glyph-name="uni00AD" unicode="&#xad;" horiz-adv-x="208" 
d="M2 278h205v-74h-205v74z" />
    <glyph glyph-name="registered" unicode="&#xae;" horiz-adv-x="800" 
d="M792 377q0 -105 -50.5 -194t-141 -142.5t-200.5 -53.5q-164 0 -278 113.5t-114 276.5t114 276.5t278 113.5q165 0 278.5 -114.5t113.5 -275.5zM400 47q138 0 235 97.5t97 232.5t-97 232.5t-236 97.5q-135 0 -233 -97t-98 -233q0 -135 98 -232.5t234 -97.5zM254 593h190
q148 0 148 -113q0 -112 -135 -117l129 -197h-72l-128 197h-72v-197h-60v427zM314 423h122q96 0 96 58q0 52 -100 52h-118v-110z" />
    <glyph glyph-name="macron" unicode="&#xaf;" horiz-adv-x="499" 
d="M79 682h342v-68h-342v68z" />
    <glyph glyph-name="degree" unicode="&#xb0;" horiz-adv-x="400" 
d="M350 617q0 -62 -44 -106t-106 -44t-106 44t-44 106t44 106t106 44t106 -44.5t44 -105.5zM302 617q0 42 -30 72t-73 30q-42 0 -71.5 -30t-29.5 -72q0 -43 29.5 -72.5t72.5 -29.5q42 0 72 29.5t30 72.5z" />
    <glyph glyph-name="plusminus" unicode="&#xb1;" 
d="M269 498h78v-153h203v-78h-203v-153h-78v153h-203v78h203v153zM66 78h484v-78h-484v78z" />
    <glyph glyph-name="twosuperior" unicode="&#xb2;" horiz-adv-x="369" 
d="M343 633q0 -62 -41 -105l-156 -169h197v-52h-317l222 242q35 38 35 84q0 36 -26 59t-66 23q-44 0 -68.5 -24t-24.5 -64h-60q1 61 44.5 100.5t106.5 39.5q66 0 110 -37.5t44 -96.5z" />
    <glyph glyph-name="threesuperior" unicode="&#xb3;" horiz-adv-x="369" 
d="M326 643q0 -31 -17 -58t-46 -41q33 -13 51.5 -42.5t18.5 -68.5q0 -62 -41.5 -98t-110.5 -36q-61 0 -103 35.5t-42 87.5v2h60q0 -33 24.5 -53t62.5 -20q39 0 64.5 24t25.5 61q0 36 -24.5 59.5t-66.5 23.5h-7v52q42 0 66.5 19.5t24.5 50.5q0 32 -23.5 53t-56.5 21
q-67 0 -75 -67h-60q6 55 41 87t95 32q62 0 100.5 -35t38.5 -89z" />
    <glyph glyph-name="acute" unicode="&#xb4;" horiz-adv-x="358" 
d="M197 744l84 -38l-153 -154l-50 28z" />
    <glyph glyph-name="mu" unicode="&#xb5;" horiz-adv-x="512" 
d="M150 470v-262q0 -27 1.5 -46t8 -39.5t17.5 -33t31 -20.5t48 -8t48 8t31 20.5t17.5 33t8 39.5t1.5 46v262h80v-271q0 -212 -186 -212q-57 0 -106 47v-298h-80v734h80z" />
    <glyph glyph-name="paragraph" unicode="&#xb6;" horiz-adv-x="592" 
d="M274 754h260v-65h-58v-842h-65v842h-81v-842h-65v436q-93 0 -149.5 65t-56.5 168q0 92 63 165t152 73z" />
    <glyph glyph-name="periodcentered" unicode="&#xb7;" horiz-adv-x="308" 
d="M210 256q0 -24 -17 -40.5t-39 -16.5t-39 16.5t-17 40.5q0 22 16.5 38.5t39.5 16.5t39.5 -16.5t16.5 -38.5z" />
    <glyph glyph-name="cedilla" unicode="&#xb8;" horiz-adv-x="325" 
d="M78 -171l96 148l74 -30l-114 -146z" />
    <glyph glyph-name="onesuperior" unicode="&#xb9;" horiz-adv-x="369" 
d="M143 759h112v-452h-60v400h-81z" />
    <glyph glyph-name="ordmasculine" unicode="&#xba;" horiz-adv-x="337" 
d="M330 617q0 -61 -46.5 -104.5t-114.5 -43.5t-114.5 43t-46.5 105q0 63 46.5 106.5t114.5 43.5t114.5 -44t46.5 -106zM169 513q46 0 77.5 30.5t31.5 74.5t-31.5 74.5t-78.5 30.5q-45 0 -76.5 -30.5t-31.5 -74.5t31.5 -74.5t77.5 -30.5z" />
    <glyph glyph-name="guillemotright" unicode="&#xbb;" horiz-adv-x="500" 
d="M291 453l168 -213l-168 -207l-53 41l135 166l-135 171zM121 453l168 -213l-168 -207l-53 41l135 166l-135 171z" />
    <glyph glyph-name="onequarter" unicode="&#xbc;" horiz-adv-x="924" 
d="M459 73l304 405h1v-353h60v-52h-60v-73h-60v73h-245zM704 315h-2l-142 -190h144v190zM129 759h112v-452h-60v400h-81zM209 11l439 756l44 -24l-439 -756z" />
    <glyph glyph-name="onehalf" unicode="&#xbd;" horiz-adv-x="924" 
d="M129 759h112v-452h-60v400h-81zM164 11l439 756l44 -24l-439 -756zM824 326q0 -62 -41 -105l-156 -169h197v-52h-317l222 242q35 38 35 84q0 36 -26 59t-66 23q-44 0 -68.5 -24t-24.5 -64h-60q1 61 44.5 100.5t106.5 39.5q66 0 110 -37.5t44 -96.5z" />
    <glyph glyph-name="threequarters" unicode="&#xbe;" horiz-adv-x="924" 
d="M479 73l304 405h1v-353h60v-52h-60v-73h-60v73h-245zM724 315h-2l-142 -190h144v190zM370 643q0 -31 -17 -58t-46 -41q33 -13 51.5 -42.5t18.5 -68.5q0 -62 -41.5 -98t-110.5 -36q-61 0 -103 35.5t-42 87.5v2h60q0 -33 24.5 -53t62.5 -20q39 0 64.5 24t25.5 61
q0 36 -24.5 59.5t-66.5 23.5h-7v52q42 0 66.5 19.5t24.5 50.5q0 32 -23.5 53t-56.5 21q-67 0 -75 -67h-60q6 55 41 87t95 32q62 0 100.5 -35t38.5 -89zM267 11l439 756l44 -24l-439 -756z" />
    <glyph glyph-name="questiondown" unicode="&#xbf;" horiz-adv-x="488" 
d="M62 -113q0 95 68 145q9 6 20 12t28 12l25.5 9t31.5 10t27 8q64 20 64 79q0 33 -23.5 56.5t-58.5 23.5q-36 0 -58.5 -26t-22.5 -70h-81v8q0 70 47 117.5t116 47.5t116 -47t47 -116q0 -61 -38.5 -99t-130.5 -64q-49 -14 -72 -38.5t-23 -66.5q0 -45 29 -74.5t74 -29.5
q42 0 70 29t28 71q0 23 -6 47h83l4 -55q0 -71 -52.5 -120t-131.5 -49q-77 0 -128.5 52t-51.5 128zM190 426q0 23 16.5 40t39.5 17t39.5 -17t16.5 -40q0 -22 -16.5 -38.5t-39.5 -16.5t-39.5 16.5t-16.5 38.5z" />
    <glyph glyph-name="Agrave" unicode="&#xc0;" horiz-adv-x="699" 
d="M6 0l348 790l339 -790h-93l-89 214h-322l-91 -214h-92zM352 594l-129 -302h255zM209 965l84 38l119 -164l-50 -28z" />
    <glyph glyph-name="Aacute" unicode="&#xc1;" horiz-adv-x="699" 
d="M6 0l348 790l339 -790h-93l-89 214h-322l-91 -214h-92zM352 594l-129 -302h255zM408 1003l84 -38l-153 -154l-50 28z" />
    <glyph glyph-name="Acircumflex" unicode="&#xc2;" horiz-adv-x="699" 
d="M6 0l348 790l339 -790h-93l-89 214h-322l-91 -214h-92zM352 594l-129 -302h255zM193 863l156 133l158 -133l-58 -45l-100 85l-99 -85z" />
    <glyph glyph-name="Atilde" unicode="&#xc3;" horiz-adv-x="699" 
d="M6 0l348 790l339 -790h-93l-89 214h-322l-91 -214h-92zM352 594l-129 -302h255zM478 967l47 -38q-16 -38 -44.5 -59.5t-61.5 -21.5q-25 0 -74.5 22.5t-70.5 22.5q-29 0 -50 -46l-49 39q46 79 102 79q32 0 82 -23t63 -23q31 0 56 48z" />
    <glyph glyph-name="Adieresis" unicode="&#xc4;" horiz-adv-x="699" 
d="M6 0l348 790l339 -790h-93l-89 214h-322l-91 -214h-92zM352 594l-129 -302h255zM305 910q0 -23 -15.5 -38.5t-38.5 -15.5t-38.5 15.5t-15.5 38.5q0 22 15 38t39 16q23 0 38.5 -15.5t15.5 -38.5zM502 910q0 -22 -15 -38t-39 -16q-23 0 -38.5 15.5t-15.5 38.5t15.5 38.5
t38.5 15.5t38.5 -15.5t15.5 -38.5z" />
    <glyph glyph-name="Aring" unicode="&#xc5;" horiz-adv-x="699" 
d="M6 0l348 790l339 -790h-93l-89 214h-322l-91 -214h-92zM352 594l-129 -302h255zM448 909q0 -41 -28 -69.5t-69 -28.5t-69.5 29t-28.5 69q0 39 29 68t69 29t68.5 -29t28.5 -68zM351 861q20 0 33.5 13.5t13.5 34.5q0 20 -13.5 33.5t-34.5 13.5q-20 0 -33.5 -13.5
t-13.5 -33.5q0 -21 14 -34.5t34 -13.5z" />
    <glyph glyph-name="AE" unicode="&#xc6;" horiz-adv-x="1000" 
d="M342 754h331l34 -78h-305l94 -225h297l35 -78h-298l123 -295h306l33 -78h-393l-89 212h-322l-89 -212h-93zM352 587l-128 -297h252z" />
    <glyph glyph-name="Ccedilla" unicode="&#xc7;" horiz-adv-x="717" 
d="M651 693v-104q-98 100 -230 100q-123 0 -213.5 -92t-90.5 -220q0 -125 90.5 -218.5t215.5 -93.5q128 0 228 100v-104q-102 -74 -225 -74q-101 0 -191 49t-146 139t-56 199q0 164 116.5 278.5t276.5 114.5q132 0 225 -74zM274 -171l96 148l74 -30l-114 -146z" />
    <glyph glyph-name="Egrave" unicode="&#xc8;" horiz-adv-x="534" 
d="M76 754h391v-78h-307v-224h298v-78h-298v-296h307v-78h-391v754zM141 965l84 38l119 -164l-50 -28z" />
    <glyph glyph-name="Eacute" unicode="&#xc9;" horiz-adv-x="534" 
d="M76 754h391v-78h-307v-224h298v-78h-298v-296h307v-78h-391v754zM325 1003l84 -38l-153 -154l-50 28z" />
    <glyph glyph-name="Ecircumflex" unicode="&#xca;" horiz-adv-x="534" 
d="M76 754h391v-78h-307v-224h298v-78h-298v-296h307v-78h-391v754zM110 863l156 133l158 -133l-58 -45l-100 85l-99 -85z" />
    <glyph glyph-name="Edieresis" unicode="&#xcb;" horiz-adv-x="534" 
d="M76 754h391v-78h-307v-224h298v-78h-298v-296h307v-78h-391v754zM223 910q0 -23 -15.5 -38.5t-38.5 -15.5t-38.5 15.5t-15.5 38.5q0 22 15 38t39 16q23 0 38.5 -15.5t15.5 -38.5zM420 910q0 -22 -15 -38t-39 -16q-23 0 -38.5 15.5t-15.5 38.5t15.5 38.5t38.5 15.5
t38.5 -15.5t15.5 -38.5z" />
    <glyph glyph-name="Igrave" unicode="&#xcc;" horiz-adv-x="239" 
d="M78 754h84v-754h-84v754zM-5 965l84 38l119 -164l-50 -28z" />
    <glyph glyph-name="Iacute" unicode="&#xcd;" horiz-adv-x="239" 
d="M78 754h84v-754h-84v754zM164 1003l84 -38l-153 -154l-50 28z" />
    <glyph glyph-name="Icircumflex" unicode="&#xce;" horiz-adv-x="239" 
d="M78 754h84v-754h-84v754zM-36 863l156 133l158 -133l-58 -45l-100 85l-99 -85z" />
    <glyph glyph-name="Idieresis" unicode="&#xcf;" horiz-adv-x="239" 
d="M78 754h84v-754h-84v754zM76 910q0 -23 -15.5 -38.5t-38.5 -15.5t-38.5 15.5t-15.5 38.5q0 22 15 38t39 16q23 0 38.5 -15.5t15.5 -38.5zM273 910q0 -22 -15 -38t-39 -16q-23 0 -38.5 15.5t-15.5 38.5t15.5 38.5t38.5 15.5t38.5 -15.5t15.5 -38.5z" />
    <glyph glyph-name="Eth" unicode="&#xd0;" horiz-adv-x="678" 
d="M0 442h76v312h161q152 0 253 -73q147 -108 147 -307q0 -132 -73 -225q-56 -70 -130.5 -109.5t-199.5 -39.5h-158v370h-76v72zM160 78h75q115 0 189 50q64 44 96.5 110.5t32.5 138.5q0 85 -44 161t-127 112q-58 26 -145 26h-77v-234h134v-72h-134v-292z" />
    <glyph glyph-name="Ntilde" unicode="&#xd1;" horiz-adv-x="834" 
d="M81 0v786l588 -616v584h84v-788l-588 615v-581h-84zM545 967l47 -38q-16 -38 -44.5 -59.5t-61.5 -21.5q-25 0 -74.5 22.5t-70.5 22.5q-29 0 -50 -46l-49 39q46 79 102 79q32 0 82 -23t63 -23q31 0 56 48z" />
    <glyph glyph-name="Ograve" unicode="&#xd2;" horiz-adv-x="862" 
d="M824 376q0 -160 -114.5 -274.5t-278.5 -114.5q-162 0 -277.5 114.5t-115.5 274.5t115 275.5t278 115.5t278 -115.5t115 -275.5zM431 65q128 0 218.5 92.5t90.5 219.5q0 128 -89.5 220t-220.5 92q-128 0 -218 -92t-90 -220t91 -220t218 -92zM290 965l84 38l119 -164
l-50 -28z" />
    <glyph glyph-name="Oacute" unicode="&#xd3;" horiz-adv-x="862" 
d="M824 376q0 -160 -114.5 -274.5t-278.5 -114.5q-162 0 -277.5 114.5t-115.5 274.5t115 275.5t278 115.5t278 -115.5t115 -275.5zM431 65q128 0 218.5 92.5t90.5 219.5q0 128 -89.5 220t-220.5 92q-128 0 -218 -92t-90 -220t91 -220t218 -92zM489 1003l84 -38l-153 -154
l-50 28z" />
    <glyph glyph-name="Ocircumflex" unicode="&#xd4;" horiz-adv-x="862" 
d="M824 376q0 -160 -114.5 -274.5t-278.5 -114.5q-162 0 -277.5 114.5t-115.5 274.5t115 275.5t278 115.5t278 -115.5t115 -275.5zM431 65q128 0 218.5 92.5t90.5 219.5q0 128 -89.5 220t-220.5 92q-128 0 -218 -92t-90 -220t91 -220t218 -92zM274 863l156 133l158 -133
l-58 -45l-100 85l-99 -85z" />
    <glyph glyph-name="Otilde" unicode="&#xd5;" horiz-adv-x="862" 
d="M824 376q0 -160 -114.5 -274.5t-278.5 -114.5q-162 0 -277.5 114.5t-115.5 274.5t115 275.5t278 115.5t278 -115.5t115 -275.5zM431 65q128 0 218.5 92.5t90.5 219.5q0 128 -89.5 220t-220.5 92q-128 0 -218 -92t-90 -220t91 -220t218 -92zM559 967l47 -38
q-16 -38 -44.5 -59.5t-61.5 -21.5q-25 0 -74.5 22.5t-70.5 22.5q-29 0 -50 -46l-49 39q46 79 102 79q32 0 82 -23t63 -23q31 0 56 48z" />
    <glyph glyph-name="Odieresis" unicode="&#xd6;" horiz-adv-x="862" 
d="M824 376q0 -160 -114.5 -274.5t-278.5 -114.5q-162 0 -277.5 114.5t-115.5 274.5t115 275.5t278 115.5t278 -115.5t115 -275.5zM431 65q128 0 218.5 92.5t90.5 219.5q0 128 -89.5 220t-220.5 92q-128 0 -218 -92t-90 -220t91 -220t218 -92zM387 910q0 -23 -15.5 -38.5
t-38.5 -15.5t-38.5 15.5t-15.5 38.5q0 22 15 38t39 16q23 0 38.5 -15.5t15.5 -38.5zM584 910q0 -22 -15 -38t-39 -16q-23 0 -38.5 15.5t-15.5 38.5t15.5 38.5t38.5 15.5t38.5 -15.5t15.5 -38.5z" />
    <glyph glyph-name="multiply" unicode="&#xd7;" 
d="M121 498l187 -187l186 187l56 -55l-187 -187l187 -187l-56 -55l-186 187l-187 -187l-55 55l187 187l-187 187z" />
    <glyph glyph-name="Oslash" unicode="&#xd8;" horiz-adv-x="862" 
d="M42 37l89 89q-93 107 -93 250q0 160 115 275.5t278 115.5q142 0 251 -91l92 91l46 -45l-92 -91q96 -109 96 -255q0 -160 -114.5 -274.5t-278.5 -114.5q-144 0 -255 93l-90 -90zM431 65q128 0 218.5 92.5t90.5 219.5q0 110 -69 197l-437 -436q84 -73 197 -73zM122 377
q0 -108 67 -193l437 436q-85 69 -196 69q-128 0 -218 -92t-90 -220z" />
    <glyph glyph-name="Ugrave" unicode="&#xd9;" horiz-adv-x="685" 
d="M74 754h84v-465q0 -82 16.5 -123.5t63.5 -70.5q49 -30 105 -30t104 29.5t64 69.5q17 42 17 127v463h84v-481q0 -103 -35 -160q-36 -58 -99 -92t-135 -34q-51 0 -102 19t-86 52q-43 41 -62 86t-19 131v479zM202 965l84 38l119 -164l-50 -28z" />
    <glyph glyph-name="Uacute" unicode="&#xda;" horiz-adv-x="685" 
d="M74 754h84v-465q0 -82 16.5 -123.5t63.5 -70.5q49 -30 105 -30t104 29.5t64 69.5q17 42 17 127v463h84v-481q0 -103 -35 -160q-36 -58 -99 -92t-135 -34q-51 0 -102 19t-86 52q-43 41 -62 86t-19 131v479zM401 1003l84 -38l-153 -154l-50 28z" />
    <glyph glyph-name="Ucircumflex" unicode="&#xdb;" horiz-adv-x="685" 
d="M74 754h84v-465q0 -82 16.5 -123.5t63.5 -70.5q49 -30 105 -30t104 29.5t64 69.5q17 42 17 127v463h84v-481q0 -103 -35 -160q-36 -58 -99 -92t-135 -34q-51 0 -102 19t-86 52q-43 41 -62 86t-19 131v479zM186 863l156 133l158 -133l-58 -45l-100 85l-99 -85z" />
    <glyph glyph-name="Udieresis" unicode="&#xdc;" horiz-adv-x="685" 
d="M74 754h84v-465q0 -82 16.5 -123.5t63.5 -70.5q49 -30 105 -30t104 29.5t64 69.5q17 42 17 127v463h84v-481q0 -103 -35 -160q-36 -58 -99 -92t-135 -34q-51 0 -102 19t-86 52q-43 41 -62 86t-19 131v479zM298 910q0 -23 -15.5 -38.5t-38.5 -15.5t-38.5 15.5t-15.5 38.5
q0 22 15 38t39 16q23 0 38.5 -15.5t15.5 -38.5zM495 910q0 -22 -15 -38t-39 -16q-23 0 -38.5 15.5t-15.5 38.5t15.5 38.5t38.5 15.5t38.5 -15.5t15.5 -38.5z" />
    <glyph glyph-name="Yacute" unicode="&#xdd;" horiz-adv-x="593" 
d="M8 754h97l192 -336l192 336h97l-247 -430v-324h-84v324zM375 1003l84 -38l-153 -154l-50 28z" />
    <glyph glyph-name="Thorn" unicode="&#xde;" horiz-adv-x="503" 
d="M76 754h84v-140h48q86 0 138 -19q56 -21 91 -73t35 -120q0 -86 -58 -149t-179 -63h-75v-190h-84v754zM160 536v-268h49q89 0 134 31.5t45 104.5q0 74 -45 103t-143 29h-40z" />
    <glyph glyph-name="germandbls" unicode="&#xdf;" horiz-adv-x="577" 
d="M464 650q0 -47 -22.5 -86.5t-61.5 -59.5q75 -27 118 -94.5t43 -150.5q0 -108 -83.5 -189.5t-203.5 -82.5v74q91 7 148 65t57 140q0 75 -52.5 131t-152.5 61v74q59 0 94.5 33.5t35.5 88.5q0 48 -32.5 79t-82.5 31q-52 0 -82 -28q-35 -32 -35 -126v-610h-80v396h-44v74h44
v160q0 92 44 144q53 64 154 64q84 0 139 -54t55 -134z" />
    <glyph glyph-name="agrave" unicode="&#xe0;" horiz-adv-x="577" 
d="M423 403h2v67h80v-470h-80v65h-2q-61 -78 -162 -78q-98 0 -161.5 71.5t-63.5 175.5q0 108 63 178.5t163 70.5q99 0 161 -80zM272 61q71 0 114 49.5t43 128.5q0 74 -44 122t-114 48q-65 0 -109 -49.5t-44 -119.5q0 -76 43 -127.5t111 -51.5zM148 706l84 38l119 -164
l-50 -28z" />
    <glyph glyph-name="aacute" unicode="&#xe1;" horiz-adv-x="577" 
d="M423 403h2v67h80v-470h-80v65h-2q-61 -78 -162 -78q-98 0 -161.5 71.5t-63.5 175.5q0 108 63 178.5t163 70.5q99 0 161 -80zM272 61q71 0 114 49.5t43 128.5q0 74 -44 122t-114 48q-65 0 -109 -49.5t-44 -119.5q0 -76 43 -127.5t111 -51.5zM347 744l84 -38l-153 -154
l-50 28z" />
    <glyph glyph-name="acircumflex" unicode="&#xe2;" horiz-adv-x="577" 
d="M423 403h2v67h80v-470h-80v65h-2q-61 -78 -162 -78q-98 0 -161.5 71.5t-63.5 175.5q0 108 63 178.5t163 70.5q99 0 161 -80zM272 61q71 0 114 49.5t43 128.5q0 74 -44 122t-114 48q-65 0 -109 -49.5t-44 -119.5q0 -76 43 -127.5t111 -51.5zM132 604l156 133l158 -133
l-58 -45l-100 85l-99 -85z" />
    <glyph glyph-name="atilde" unicode="&#xe3;" horiz-adv-x="577" 
d="M423 403h2v67h80v-470h-80v65h-2q-61 -78 -162 -78q-98 0 -161.5 71.5t-63.5 175.5q0 108 63 178.5t163 70.5q99 0 161 -80zM272 61q71 0 114 49.5t43 128.5q0 74 -44 122t-114 48q-65 0 -109 -49.5t-44 -119.5q0 -76 43 -127.5t111 -51.5zM417 708l47 -38
q-16 -38 -44.5 -59.5t-61.5 -21.5q-26 0 -75 22.5t-70 22.5q-31 0 -50 -46l-49 39q46 79 102 79q32 0 82 -23t63 -23q30 0 56 48z" />
    <glyph glyph-name="adieresis" unicode="&#xe4;" horiz-adv-x="577" 
d="M423 403h2v67h80v-470h-80v65h-2q-61 -78 -162 -78q-98 0 -161.5 71.5t-63.5 175.5q0 108 63 178.5t163 70.5q99 0 161 -80zM272 61q71 0 114 49.5t43 128.5q0 74 -44 122t-114 48q-65 0 -109 -49.5t-44 -119.5q0 -76 43 -127.5t111 -51.5zM244 651q0 -23 -16 -38.5
t-38 -15.5q-23 0 -38.5 15.5t-15.5 38.5q0 22 15.5 38t38.5 16q22 0 38 -15.5t16 -38.5zM441 651q0 -22 -16 -38t-38 -16t-38 15.5t-16 38.5t15.5 38.5t38.5 15.5t38.5 -16t15.5 -38z" />
    <glyph glyph-name="aring" unicode="&#xe5;" horiz-adv-x="577" 
d="M423 403h2v67h80v-470h-80v65h-2q-61 -78 -162 -78q-98 0 -161.5 71.5t-63.5 175.5q0 108 63 178.5t163 70.5q99 0 161 -80zM272 61q71 0 114 49.5t43 128.5q0 74 -44 122t-114 48q-65 0 -109 -49.5t-44 -119.5q0 -76 43 -127.5t111 -51.5zM387 650q0 -41 -28 -69.5
t-69 -28.5t-69.5 29t-28.5 69q0 39 29 68t69 29t68.5 -29t28.5 -68zM290 602q20 0 33.5 13.5t13.5 34.5q0 20 -13.5 33.5t-34.5 13.5q-20 0 -33.5 -13.5t-13.5 -33.5q0 -21 13.5 -34.5t34.5 -13.5z" />
    <glyph glyph-name="ae" unicode="&#xe6;" horiz-adv-x="843" 
d="M403 386q25 43 75.5 70t106.5 27q101 0 162.5 -69.5t61.5 -178.5v-17h-370q1 -69 45 -113t109 -44q89 0 143 97l68 -39q-71 -132 -217 -132q-56 0 -103.5 24.5t-76.5 68.5q-55 -93 -176 -93q-87 0 -144.5 40.5t-57.5 110.5q0 72 55.5 114t140.5 42q73 0 134 -40
q-1 81 -34 118t-101 37q-54 0 -144 -30v76q91 28 149 28q60 0 107 -26t67 -71zM447 286h281q-10 54 -49 88.5t-90 34.5q-49 0 -91 -34.5t-51 -88.5zM227 61q56 0 91.5 22t35.5 61q0 36 -36 57.5t-90 21.5q-47 0 -83 -22t-36 -61q0 -36 32 -57.5t86 -21.5z" />
    <glyph glyph-name="ccedilla" unicode="&#xe7;" horiz-adv-x="476" 
d="M425 436v-106h-2q-61 79 -146 79q-71 0 -118.5 -50.5t-47.5 -123.5t46 -123.5t116 -50.5q89 0 153 81h2v-107q-73 -48 -149 -48q-106 0 -178 70.5t-72 177.5q0 104 73 176t178 72q78 0 145 -47zM154 -171l96 148l74 -30l-114 -146z" />
    <glyph glyph-name="egrave" unicode="&#xe8;" horiz-adv-x="519" 
d="M262 483q104 0 164 -71.5t60 -174.5q0 -8 -1 -19h-369q1 -69 45 -113t109 -44q89 0 143 97l68 -39q-71 -132 -217 -132q-101 0 -165.5 68.5t-64.5 173.5q0 113 62.5 183.5t165.5 70.5zM120 286h281q-9 54 -48 88.5t-90 34.5q-50 0 -93 -35.5t-50 -87.5zM119 706l84 38
l119 -164l-50 -28z" />
    <glyph glyph-name="eacute" unicode="&#xe9;" horiz-adv-x="519" 
d="M262 483q104 0 164 -71.5t60 -174.5q0 -8 -1 -19h-369q1 -69 45 -113t109 -44q89 0 143 97l68 -39q-71 -132 -217 -132q-101 0 -165.5 68.5t-64.5 173.5q0 113 62.5 183.5t165.5 70.5zM120 286h281q-9 54 -48 88.5t-90 34.5q-50 0 -93 -35.5t-50 -87.5zM318 744l84 -38
l-153 -154l-50 28z" />
    <glyph glyph-name="ecircumflex" unicode="&#xea;" horiz-adv-x="519" 
d="M262 483q104 0 164 -71.5t60 -174.5q0 -8 -1 -19h-369q1 -69 45 -113t109 -44q89 0 143 97l68 -39q-71 -132 -217 -132q-101 0 -165.5 68.5t-64.5 173.5q0 113 62.5 183.5t165.5 70.5zM120 286h281q-9 54 -48 88.5t-90 34.5q-50 0 -93 -35.5t-50 -87.5zM103 604l156 133
l158 -133l-58 -45l-100 85l-99 -85z" />
    <glyph glyph-name="edieresis" unicode="&#xeb;" horiz-adv-x="519" 
d="M262 483q104 0 164 -71.5t60 -174.5q0 -8 -1 -19h-369q1 -69 45 -113t109 -44q89 0 143 97l68 -39q-71 -132 -217 -132q-101 0 -165.5 68.5t-64.5 173.5q0 113 62.5 183.5t165.5 70.5zM120 286h281q-9 54 -48 88.5t-90 34.5q-50 0 -93 -35.5t-50 -87.5zM215 651
q0 -23 -16 -38.5t-38 -15.5q-23 0 -38.5 15.5t-15.5 38.5q0 22 15.5 38t38.5 16q22 0 38 -15.5t16 -38.5zM412 651q0 -22 -16 -38t-38 -16t-38 15.5t-16 38.5t15.5 38.5t38.5 15.5t38.5 -16t15.5 -38z" />
    <glyph glyph-name="igrave" unicode="&#xec;" horiz-adv-x="262" 
d="M91 470h80v-470h-80v470zM6 706l84 38l119 -164l-50 -28z" />
    <glyph glyph-name="iacute" unicode="&#xed;" horiz-adv-x="262" 
d="M91 470h80v-470h-80v470zM175 744l84 -38l-153 -154l-50 28z" />
    <glyph glyph-name="icircumflex" unicode="&#xee;" horiz-adv-x="262" 
d="M91 470h80v-470h-80v470zM-25 604l156 133l158 -133l-58 -45l-100 85l-99 -85z" />
    <glyph glyph-name="idieresis" unicode="&#xef;" horiz-adv-x="262" 
d="M91 470h80v-470h-80v470zM88 651q0 -23 -16 -38.5t-38 -15.5q-23 0 -38.5 15.5t-15.5 38.5q0 22 15.5 38t38.5 16q22 0 38 -15.5t16 -38.5zM285 651q0 -22 -16 -38t-38 -16t-38 15.5t-16 38.5t15.5 38.5t38.5 15.5t38.5 -16t15.5 -38z" />
    <glyph glyph-name="eth" unicode="&#xf0;" horiz-adv-x="561" 
d="M93 785l44 46q87 -56 137 -98l138 92l40 -41l-134 -90q209 -200 209 -438q0 -123 -72.5 -195.5t-173.5 -72.5q-103 0 -175 72.5t-72 174.5q0 100 68.5 173t170.5 73q92 0 156 -64q-42 121 -169 239l-133 -89l-39 41l130 87q-40 37 -125 90zM282 62q72 0 119 50.5
t47 123.5q0 72 -47 123t-119 51q-71 0 -119 -50t-48 -124q0 -75 48.5 -124.5t118.5 -49.5z" />
    <glyph glyph-name="ntilde" unicode="&#xf1;" horiz-adv-x="528" 
d="M452 284v-284h-80v274q0 77 -24 106t-75 29q-60 0 -88.5 -40.5t-28.5 -137.5v-231h-80v470h80v-57h2q51 70 134 70q160 0 160 -199zM392 708l47 -38q-16 -38 -44.5 -59.5t-61.5 -21.5q-26 0 -75 22.5t-70 22.5q-31 0 -50 -46l-49 39q46 79 102 79q32 0 82 -23t63 -23
q30 0 56 48z" />
    <glyph glyph-name="ograve" unicode="&#xf2;" horiz-adv-x="562" 
d="M528 234q0 -103 -71.5 -175t-175.5 -72q-103 0 -175 71.5t-72 175.5q0 103 71.5 176t175.5 73t175.5 -73.5t71.5 -175.5zM281 61q73 0 120 50t47 124t-47.5 124t-120.5 50q-72 0 -119 -50t-47 -124t48 -124t119 -50zM140 706l84 38l119 -164l-50 -28z" />
    <glyph glyph-name="oacute" unicode="&#xf3;" horiz-adv-x="562" 
d="M528 234q0 -103 -71.5 -175t-175.5 -72q-103 0 -175 71.5t-72 175.5q0 103 71.5 176t175.5 73t175.5 -73.5t71.5 -175.5zM281 61q73 0 120 50t47 124t-47.5 124t-120.5 50q-72 0 -119 -50t-47 -124t48 -124t119 -50zM339 744l84 -38l-153 -154l-50 28z" />
    <glyph glyph-name="ocircumflex" unicode="&#xf4;" horiz-adv-x="562" 
d="M528 234q0 -103 -71.5 -175t-175.5 -72q-103 0 -175 71.5t-72 175.5q0 103 71.5 176t175.5 73t175.5 -73.5t71.5 -175.5zM281 61q73 0 120 50t47 124t-47.5 124t-120.5 50q-72 0 -119 -50t-47 -124t48 -124t119 -50zM124 604l156 133l158 -133l-58 -45l-100 85l-99 -85z
" />
    <glyph glyph-name="otilde" unicode="&#xf5;" horiz-adv-x="562" 
d="M528 234q0 -103 -71.5 -175t-175.5 -72q-103 0 -175 71.5t-72 175.5q0 103 71.5 176t175.5 73t175.5 -73.5t71.5 -175.5zM281 61q73 0 120 50t47 124t-47.5 124t-120.5 50q-72 0 -119 -50t-47 -124t48 -124t119 -50zM409 708l47 -38q-16 -38 -44.5 -59.5t-61.5 -21.5
q-26 0 -75 22.5t-70 22.5q-31 0 -50 -46l-49 39q46 79 102 79q32 0 82 -23t63 -23q30 0 56 48z" />
    <glyph glyph-name="odieresis" unicode="&#xf6;" horiz-adv-x="562" 
d="M528 234q0 -103 -71.5 -175t-175.5 -72q-103 0 -175 71.5t-72 175.5q0 103 71.5 176t175.5 73t175.5 -73.5t71.5 -175.5zM281 61q73 0 120 50t47 124t-47.5 124t-120.5 50q-72 0 -119 -50t-47 -124t48 -124t119 -50zM237 651q0 -23 -16 -38.5t-38 -15.5q-23 0 -38.5 15.5
t-15.5 38.5q0 22 15.5 38t38.5 16q22 0 38 -15.5t16 -38.5zM434 651q0 -22 -16 -38t-38 -16t-38 15.5t-16 38.5t15.5 38.5t38.5 15.5t38.5 -16t15.5 -38z" />
    <glyph glyph-name="divide" unicode="&#xf7;" 
d="M66 295h484v-78h-484v78zM365 67q0 -23 -16.5 -40t-40.5 -17t-40.5 17t-16.5 40t17 40t40 17t40 -17t17 -40zM365 446q0 -24 -16.5 -41t-40.5 -17t-40.5 17t-16.5 41q0 22 17 39t40 17t40 -17t17 -39z" />
    <glyph glyph-name="oslash" unicode="&#xf8;" horiz-adv-x="562" 
d="M20 11l68 68q-54 67 -54 155q0 103 71.5 176t175.5 73q88 0 156 -55l66 66l39 -38l-67 -67q53 -67 53 -155q0 -103 -71.5 -175t-175.5 -72q-87 0 -154 53l-68 -68zM114 235q0 -56 29 -101l240 240q-43 35 -103 35q-72 0 -119 -50t-47 -124zM281 61q73 0 120 50t47 124
q0 57 -29 98l-239 -239q44 -33 101 -33z" />
    <glyph glyph-name="ugrave" unicode="&#xf9;" horiz-adv-x="512" 
d="M70 470h80v-269q0 -79 25 -109.5t81 -30.5q54 0 80 29.5t26 106.5v273h80v-276q0 -207 -186 -207t-186 207v276zM115 706l84 38l119 -164l-50 -28z" />
    <glyph glyph-name="uacute" unicode="&#xfa;" horiz-adv-x="512" 
d="M70 470h80v-269q0 -79 25 -109.5t81 -30.5q54 0 80 29.5t26 106.5v273h80v-276q0 -207 -186 -207t-186 207v276zM314 744l84 -38l-153 -154l-50 28z" />
    <glyph glyph-name="ucircumflex" unicode="&#xfb;" horiz-adv-x="512" 
d="M70 470h80v-269q0 -79 25 -109.5t81 -30.5q54 0 80 29.5t26 106.5v273h80v-276q0 -207 -186 -207t-186 207v276zM99 604l156 133l158 -133l-58 -45l-100 85l-99 -85z" />
    <glyph glyph-name="udieresis" unicode="&#xfc;" horiz-adv-x="512" 
d="M70 470h80v-269q0 -79 25 -109.5t81 -30.5q54 0 80 29.5t26 106.5v273h80v-276q0 -207 -186 -207t-186 207v276zM212 651q0 -23 -16 -38.5t-38 -15.5q-23 0 -38.5 15.5t-15.5 38.5q0 22 15.5 38t38.5 16q22 0 38 -15.5t16 -38.5zM409 651q0 -22 -16 -38t-38 -16t-38 15.5
t-16 38.5t15.5 38.5t38.5 15.5t38.5 -16t15.5 -38z" />
    <glyph glyph-name="yacute" unicode="&#xfd;" horiz-adv-x="498" 
d="M-2 470h93l166 -337l152 337h91l-347 -734h-91l152 308zM327 744l84 -38l-153 -154l-50 28z" />
    <glyph glyph-name="thorn" unicode="&#xfe;" horiz-adv-x="577" 
d="M541 234q0 -107 -62.5 -177t-163.5 -70q-102 0 -161 79h-2v-330h-80v1089h80v-422h2q60 80 162 80q98 0 161.5 -72.5t63.5 -176.5zM302 61q71 0 114 49.5t43 128.5q0 74 -43.5 122t-115.5 48q-65 0 -108.5 -49.5t-43.5 -119.5q0 -76 42.5 -127.5t111.5 -51.5z" />
    <glyph glyph-name="ydieresis" unicode="&#xff;" horiz-adv-x="498" 
d="M-2 470h93l166 -337l152 337h91l-347 -734h-91l152 308zM210 651q0 -23 -16 -38.5t-38 -15.5q-23 0 -38.5 15.5t-15.5 38.5q0 22 15.5 38t38.5 16q22 0 38 -15.5t16 -38.5zM407 651q0 -22 -16 -38t-38 -16t-38 15.5t-16 38.5t15.5 38.5t38.5 15.5t38.5 -16t15.5 -38z" />
    <glyph glyph-name="Amacron" unicode="&#x100;" horiz-adv-x="699" 
d="M6 0l348 790l339 -790h-93l-89 214h-322l-91 -214h-92zM352 594l-129 -302h255zM187 941h342v-68h-342v68z" />
    <glyph glyph-name="amacron" unicode="&#x101;" horiz-adv-x="577" 
d="M423 403h2v67h80v-470h-80v65h-2q-61 -78 -162 -78q-98 0 -161.5 71.5t-63.5 175.5q0 108 63 178.5t163 70.5q99 0 161 -80zM272 61q71 0 114 49.5t43 128.5q0 74 -44 122t-114 48q-65 0 -109 -49.5t-44 -119.5q0 -76 43 -127.5t111 -51.5zM132 682h342v-68h-342v68z" />
    <glyph glyph-name="Abreve" unicode="&#x102;" horiz-adv-x="699" 
d="M6 0l348 790l339 -790h-93l-89 214h-322l-91 -214h-92zM352 594l-129 -302h255zM192 975h69q26 -68 95 -68t95 68h69q-9 -62 -54.5 -99t-109.5 -37q-62 0 -109.5 38.5t-54.5 97.5z" />
    <glyph glyph-name="abreve" unicode="&#x103;" horiz-adv-x="577" 
d="M423 403h2v67h80v-470h-80v65h-2q-61 -78 -162 -78q-98 0 -161.5 71.5t-63.5 175.5q0 108 63 178.5t163 70.5q99 0 161 -80zM272 61q71 0 114 49.5t43 128.5q0 74 -44 122t-114 48q-65 0 -109 -49.5t-44 -119.5q0 -76 43 -127.5t111 -51.5zM125 716h69q26 -68 95 -68
t95 68h69q-9 -62 -54.5 -99t-109.5 -37q-63 0 -110 38t-54 98z" />
    <glyph glyph-name="Aogonek" unicode="&#x104;" horiz-adv-x="699" 
d="M6 0l348 790l339 -790h-21q-80 -58 -80 -102q0 -50 53 -50q31 0 60 18l-8 -61q-33 -15 -63 -15q-46 0 -77.5 26t-31.5 67q0 67 83 117h-8l-89 214h-322l-91 -214h-92zM352 594l-129 -302h255z" />
    <glyph glyph-name="aogonek" unicode="&#x105;" horiz-adv-x="577" 
d="M423 403h2v67h80v-470h-6q-80 -57 -80 -102q0 -50 53 -50q32 0 60 18l-8 -61q-30 -15 -63 -15q-46 0 -77.5 26t-31.5 67q0 67 83 117h-10v65h-2q-61 -78 -162 -78q-98 0 -161.5 71.5t-63.5 175.5q0 107 63.5 178t162.5 71q100 0 161 -80zM272 61q71 0 114 49.5t43 128.5
q0 74 -44 122t-114 48q-65 0 -109 -49.5t-44 -119.5q0 -76 43 -127.5t111 -51.5z" />
    <glyph glyph-name="Cacute" unicode="&#x106;" horiz-adv-x="717" 
d="M651 693v-104q-98 100 -230 100q-123 0 -213.5 -92t-90.5 -220q0 -125 90.5 -218.5t215.5 -93.5q128 0 228 100v-104q-102 -74 -225 -74q-101 0 -191 49t-146 139t-56 199q0 164 116.5 278.5t276.5 114.5q132 0 225 -74zM463 1003l84 -38l-153 -154l-50 28z" />
    <glyph glyph-name="cacute" unicode="&#x107;" horiz-adv-x="476" 
d="M425 436v-106h-2q-61 79 -146 79q-71 0 -118.5 -50.5t-47.5 -123.5t46 -123.5t116 -50.5q89 0 153 81h2v-107q-73 -48 -149 -48q-106 0 -178 70.5t-72 177.5q0 104 73 176t178 72q78 0 145 -47zM337 744l84 -38l-153 -154l-50 28z" />
    <glyph glyph-name="Ccircumflex" unicode="&#x108;" horiz-adv-x="717" 
d="M651 693v-104q-98 100 -230 100q-123 0 -213.5 -92t-90.5 -220q0 -125 90.5 -218.5t215.5 -93.5q128 0 228 100v-104q-102 -74 -225 -74q-101 0 -191 49t-146 139t-56 199q0 164 116.5 278.5t276.5 114.5q132 0 225 -74zM257 863l156 133l158 -133l-58 -45l-100 85
l-99 -85z" />
    <glyph glyph-name="ccircumflex" unicode="&#x109;" horiz-adv-x="476" 
d="M425 436v-106h-2q-61 79 -146 79q-71 0 -118.5 -50.5t-47.5 -123.5t46 -123.5t116 -50.5q89 0 153 81h2v-107q-73 -48 -149 -48q-106 0 -178 70.5t-72 177.5q0 104 73 176t178 72q78 0 145 -47zM118 604l156 133l158 -133l-58 -45l-100 85l-99 -85z" />
    <glyph glyph-name="Cdotaccent" unicode="&#x10a;" horiz-adv-x="717" 
d="M651 693v-104q-98 100 -230 100q-123 0 -213.5 -92t-90.5 -220q0 -125 90.5 -218.5t215.5 -93.5q128 0 228 100v-104q-102 -74 -225 -74q-101 0 -191 49t-146 139t-56 199q0 164 116.5 278.5t276.5 114.5q132 0 225 -74zM466 921q0 -23 -15.5 -38.5t-38.5 -15.5
t-38.5 15.5t-15.5 38.5t15.5 38.5t38.5 15.5t38.5 -15t15.5 -39z" />
    <glyph glyph-name="cdotaccent" unicode="&#x10b;" horiz-adv-x="476" 
d="M425 436v-106h-2q-61 79 -146 79q-71 0 -118.5 -50.5t-47.5 -123.5t46 -123.5t116 -50.5q89 0 153 81h2v-107q-73 -48 -149 -48q-106 0 -178 70.5t-72 177.5q0 104 73 176t178 72q78 0 145 -47zM331 662q0 -23 -15.5 -38.5t-38.5 -15.5t-38.5 15.5t-15.5 38.5t15.5 38.5
t38.5 15.5t38.5 -15t15.5 -39z" />
    <glyph glyph-name="Ccaron" unicode="&#x10c;" horiz-adv-x="717" 
d="M651 693v-104q-98 100 -230 100q-123 0 -213.5 -92t-90.5 -220q0 -125 90.5 -218.5t215.5 -93.5q128 0 228 100v-104q-102 -74 -225 -74q-101 0 -191 49t-146 139t-56 199q0 164 116.5 278.5t276.5 114.5q132 0 225 -74zM257 951l58 45l100 -85l99 85l57 -45l-156 -133z
" />
    <glyph glyph-name="ccaron" unicode="&#x10d;" horiz-adv-x="476" 
d="M425 436v-106h-2q-61 79 -146 79q-71 0 -118.5 -50.5t-47.5 -123.5t46 -123.5t116 -50.5q89 0 153 81h2v-107q-73 -48 -149 -48q-106 0 -178 70.5t-72 177.5q0 104 73 176t178 72q78 0 145 -47zM127 692l58 45l100 -85l99 85l57 -45l-156 -133z" />
    <glyph glyph-name="Dcaron" unicode="&#x10e;" horiz-adv-x="678" 
d="M76 754h159q173 0 278 -92q124 -107 124 -288q0 -97 -44.5 -180t-125.5 -135q-92 -59 -233 -59h-158v754zM160 78h80q81 0 143.5 28t98 73t53.5 95.5t18 102.5q0 156 -123 246q-73 53 -199 53h-71v-598zM151 951l58 45l100 -85l99 85l57 -45l-156 -133z" />
    <glyph glyph-name="dcaron" unicode="&#x10f;" horiz-adv-x="577" 
d="M425 825h80v-825h-80v65h-2q-60 -78 -162 -78q-97 0 -161 72t-64 175q0 108 63 178.5t163 70.5t161 -80h2v422zM272 61q71 0 114 49.5t43 128.5q0 74 -43 122t-115 48q-66 0 -109.5 -49t-43.5 -120q0 -76 42 -127.5t112 -51.5zM617 752l87 -17l-99 -188l-55 16z" />
    <glyph glyph-name="Dcroat" unicode="&#x110;" horiz-adv-x="678" 
d="M0 442h76v312h161q152 0 253 -73q147 -108 147 -307q0 -132 -73 -225q-56 -70 -130.5 -109.5t-199.5 -39.5h-158v370h-76v72zM160 78h75q115 0 189 50q64 44 96.5 110.5t32.5 138.5q0 85 -44 161t-127 112q-58 26 -145 26h-77v-234h134v-72h-134v-292z" />
    <glyph glyph-name="dcroat" unicode="&#x111;" horiz-adv-x="577" 
d="M289 675h136v150h80v-150h60v-51h-60v-624h-80v65h-2q-60 -78 -162 -78q-98 0 -161.5 71.5t-63.5 175.5q0 108 63 178.5t163 70.5t161 -80h2v221h-136v51zM272 61q71 0 114 49.5t43 128.5q0 74 -43 122t-115 48q-65 0 -109 -49.5t-44 -119.5q0 -76 42 -127.5t112 -51.5z
" />
    <glyph glyph-name="Emacron" unicode="&#x112;" horiz-adv-x="534" 
d="M76 754h391v-78h-307v-224h298v-78h-298v-296h307v-78h-391v754zM98 941h342v-68h-342v68z" />
    <glyph glyph-name="emacron" unicode="&#x113;" horiz-adv-x="519" 
d="M262 483q104 0 164 -71.5t60 -174.5q0 -8 -1 -19h-369q1 -69 45 -113t109 -44q89 0 143 97l68 -39q-71 -132 -217 -132q-101 0 -165.5 68.5t-64.5 173.5q0 113 62.5 183.5t165.5 70.5zM120 286h281q-9 54 -48 88.5t-90 34.5q-50 0 -93 -35.5t-50 -87.5zM92 682h342v-68
h-342v68z" />
    <glyph glyph-name="Ebreve" unicode="&#x114;" horiz-adv-x="534" 
d="M76 754h391v-78h-307v-224h298v-78h-298v-296h307v-78h-391v754zM108 975h69q26 -68 95 -68t95 68h69q-9 -62 -54.5 -99t-109.5 -37q-62 0 -109.5 38.5t-54.5 97.5z" />
    <glyph glyph-name="ebreve" unicode="&#x115;" horiz-adv-x="519" 
d="M262 483q104 0 164 -71.5t60 -174.5q0 -8 -1 -19h-369q1 -69 45 -113t109 -44q89 0 143 97l68 -39q-71 -132 -217 -132q-101 0 -165.5 68.5t-64.5 173.5q0 113 62.5 183.5t165.5 70.5zM120 286h281q-9 54 -48 88.5t-90 34.5q-50 0 -93 -35.5t-50 -87.5zM98 716h69
q26 -68 95 -68t95 68h69q-9 -62 -54.5 -99t-109.5 -37q-63 0 -110 38t-54 98z" />
    <glyph glyph-name="Edotaccent" unicode="&#x116;" horiz-adv-x="534" 
d="M76 754h391v-78h-307v-224h298v-78h-298v-296h307v-78h-391v754zM334 921q0 -23 -15.5 -38.5t-38.5 -15.5t-38.5 15.5t-15.5 38.5t15.5 38.5t38.5 15.5t38.5 -15t15.5 -39z" />
    <glyph glyph-name="edotaccent" unicode="&#x117;" horiz-adv-x="519" 
d="M262 483q104 0 164 -71.5t60 -174.5q0 -8 -1 -19h-369q1 -69 45 -113t109 -44q89 0 143 97l68 -39q-71 -132 -217 -132q-101 0 -165.5 68.5t-64.5 173.5q0 113 62.5 183.5t165.5 70.5zM120 286h281q-9 54 -48 88.5t-90 34.5q-50 0 -93 -35.5t-50 -87.5zM318 662
q0 -23 -15.5 -38.5t-38.5 -15.5t-38.5 15.5t-15.5 38.5t15.5 38.5t38.5 15.5t38.5 -15t15.5 -39z" />
    <glyph glyph-name="Eogonek" unicode="&#x118;" horiz-adv-x="534" 
d="M76 754h391v-78h-307v-224h298v-78h-298v-296h307v-78h-44q-80 -58 -80 -102q0 -50 53 -50q32 0 60 18l-8 -61q-28 -15 -63 -15q-46 0 -77.5 26t-31.5 67q0 64 83 117h-283v754z" />
    <glyph glyph-name="eogonek" unicode="&#x119;" horiz-adv-x="519" 
d="M485 218h-369q1 -70 45 -113.5t109 -43.5q89 0 143 97l68 -39q-55 -105 -162 -126q-70 -52 -70 -95q0 -50 53 -50q32 0 60 18l-8 -61q-30 -15 -63 -15q-46 0 -77.5 26t-31.5 67q0 59 64 105q-94 5 -153 73t-59 168q0 113 62 183.5t166 70.5q107 0 165 -72t58 -164v-29z
M120 286h281q-9 54 -48 88.5t-90 34.5q-50 0 -92.5 -35.5t-50.5 -87.5z" />
    <glyph glyph-name="Ecaron" unicode="&#x11a;" horiz-adv-x="534" 
d="M76 754h391v-78h-307v-224h298v-78h-298v-296h307v-78h-391v754zM116 951l58 45l100 -85l99 85l57 -45l-156 -133z" />
    <glyph glyph-name="ecaron" unicode="&#x11b;" horiz-adv-x="519" 
d="M262 483q104 0 164 -71.5t60 -174.5q0 -8 -1 -19h-369q1 -69 45 -113t109 -44q89 0 143 97l68 -39q-71 -132 -217 -132q-101 0 -165.5 68.5t-64.5 173.5q0 113 62.5 183.5t165.5 70.5zM120 286h281q-9 54 -48 88.5t-90 34.5q-50 0 -93 -35.5t-50 -87.5zM105 692l58 45
l100 -85l99 85l57 -45l-156 -133z" />
    <glyph glyph-name="Gcircumflex" unicode="&#x11c;" horiz-adv-x="820" 
d="M744 604l-61 -57q-101 142 -259 142q-126 0 -217 -92.5t-91 -222.5q0 -129 94.5 -219t207.5 -90q105 0 187 68.5t82 167.5h-224v78h314v-43q0 -146 -94 -240q-51 -51 -120 -80t-143 -29q-158 0 -273 113.5t-115 274.5q0 163 116 277.5t277 114.5q193 0 319 -163zM258 863
l156 133l158 -133l-58 -45l-100 85l-99 -85z" />
    <glyph glyph-name="gcircumflex" unicode="&#x11d;" horiz-adv-x="580" 
d="M418 403h2v67h80v-487q0 -73 -26 -127q-26 -53 -80 -85.5t-124 -32.5q-100 0 -164 58.5t-67 157.5h80q0 -64 42.5 -103t108.5 -39q83 0 116.5 52.5t33.5 145.5v55h-2q-28 -36 -72 -57t-91 -21q-98 0 -161 71.5t-63 174.5q0 106 64.5 178t162.5 72q99 0 160 -80zM267 61
q71 0 114 49.5t43 128.5q0 74 -43.5 122t-114.5 48q-66 0 -109.5 -49.5t-43.5 -119.5q0 -76 42.5 -127.5t111.5 -51.5zM122 604l156 133l158 -133l-58 -45l-100 85l-99 -85z" />
    <glyph glyph-name="Gbreve" unicode="&#x11e;" horiz-adv-x="820" 
d="M744 604l-61 -57q-101 142 -259 142q-126 0 -217 -92.5t-91 -222.5q0 -129 94.5 -219t207.5 -90q105 0 187 68.5t82 167.5h-224v78h314v-43q0 -146 -94 -240q-51 -51 -120 -80t-143 -29q-158 0 -273 113.5t-115 274.5q0 163 116 277.5t277 114.5q193 0 319 -163zM250 975
h69q26 -68 95 -68t95 68h69q-9 -62 -54.5 -99t-109.5 -37q-62 0 -109.5 38.5t-54.5 97.5z" />
    <glyph glyph-name="gbreve" unicode="&#x11f;" horiz-adv-x="580" 
d="M418 403h2v67h80v-487q0 -73 -26 -127q-26 -53 -80 -85.5t-124 -32.5q-100 0 -164 58.5t-67 157.5h80q0 -64 42.5 -103t108.5 -39q83 0 116.5 52.5t33.5 145.5v55h-2q-28 -36 -72 -57t-91 -21q-98 0 -161 71.5t-63 174.5q0 106 64.5 178t162.5 72q99 0 160 -80zM267 61
q71 0 114 49.5t43 128.5q0 74 -43.5 122t-114.5 48q-66 0 -109.5 -49.5t-43.5 -119.5q0 -76 42.5 -127.5t111.5 -51.5zM115 716h69q26 -68 95 -68t95 68h69q-9 -62 -54.5 -99t-109.5 -37q-63 0 -110 38t-54 98z" />
    <glyph glyph-name="Gdotaccent" unicode="&#x120;" horiz-adv-x="820" 
d="M744 604l-61 -57q-101 142 -259 142q-126 0 -217 -92.5t-91 -222.5q0 -129 94.5 -219t207.5 -90q105 0 187 68.5t82 167.5h-224v78h314v-43q0 -146 -94 -240q-51 -51 -120 -80t-143 -29q-158 0 -273 113.5t-115 274.5q0 163 116 277.5t277 114.5q193 0 319 -163zM467 921
q0 -23 -15.5 -38.5t-38.5 -15.5t-38.5 15.5t-15.5 38.5t15.5 38.5t38.5 15.5t38.5 -15t15.5 -39z" />
    <glyph glyph-name="gdotaccent" unicode="&#x121;" horiz-adv-x="580" 
d="M418 403h2v67h80v-487q0 -73 -26 -127q-26 -53 -80 -85.5t-124 -32.5q-100 0 -164 58.5t-67 157.5h80q0 -64 42.5 -103t108.5 -39q83 0 116.5 52.5t33.5 145.5v55h-2q-28 -36 -72 -57t-91 -21q-98 0 -161 71.5t-63 174.5q0 106 64.5 178t162.5 72q99 0 160 -80zM267 61
q71 0 114 49.5t43 128.5q0 74 -43.5 122t-114.5 48q-66 0 -109.5 -49.5t-43.5 -119.5q0 -76 42.5 -127.5t111.5 -51.5zM337 662q0 -23 -15.5 -38.5t-38.5 -15.5t-38.5 15.5t-15.5 38.5t15.5 38.5t38.5 15.5t38.5 -15t15.5 -39z" />
    <glyph glyph-name="Gcommaaccent" unicode="&#x122;" horiz-adv-x="820" 
d="M744 604l-61 -57q-101 142 -259 142q-126 0 -217 -92.5t-91 -222.5q0 -129 94.5 -219t207.5 -90q105 0 187 68.5t82 167.5h-224v78h314v-43q0 -146 -94 -240q-51 -51 -120 -80t-143 -29q-158 0 -273 113.5t-115 274.5q0 163 116 277.5t277 114.5q193 0 319 -163z
M355 -274v48q31 5 49 25.5t18 53.5h-47v90h102v-84q0 -53 -32 -89.5t-90 -43.5z" />
    <glyph glyph-name="gcommaaccent" unicode="&#x123;" horiz-adv-x="580" 
d="M418 403h2v67h80v-487q0 -73 -26 -127q-26 -53 -80 -85.5t-124 -32.5q-100 0 -164 58.5t-67 157.5h80q0 -64 42.5 -103t108.5 -39q83 0 116.5 52.5t33.5 145.5v55h-2q-28 -36 -72 -57t-91 -21q-98 0 -161 71.5t-63 174.5q0 106 64.5 178t162.5 72q99 0 160 -80zM267 61
q71 0 114 49.5t43 128.5q0 74 -43.5 122t-114.5 48q-66 0 -109.5 -49.5t-43.5 -119.5q0 -76 42.5 -127.5t111.5 -51.5zM341 798v-48q-31 -4 -49 -25t-18 -54h47v-90h-102v85q0 53 32 89t90 43z" />
    <glyph glyph-name="Hcircumflex" unicode="&#x124;" horiz-adv-x="714" 
d="M80 754h84v-306h386v306h84v-754h-84v370h-386v-370h-84v754zM203 863l156 133l158 -133l-58 -45l-100 85l-99 -85z" />
    <glyph glyph-name="hcircumflex" unicode="&#x125;" horiz-adv-x="528" 
d="M76 825h80v-410l2 -2q51 70 134 70q160 0 160 -199v-284h-80v274q0 77 -24 106t-75 29q-59 0 -88 -40.5t-29 -136.5v-232h-80v825zM31 919l156 133l158 -133l-58 -45l-100 85l-99 -85z" />
    <glyph glyph-name="Hbar" unicode="&#x126;" horiz-adv-x="714" 
d="M80 754h84v-141h386v141h84v-754h-84v370h-386v-370h-84v754zM164 448h386v114h-386v-114z" />
    <glyph glyph-name="hbar" unicode="&#x127;" horiz-adv-x="528" 
d="M295 624h-139v-209l2 -2q51 70 134 70q160 0 160 -199v-284h-80v276q0 77 -24.5 105t-74.5 28q-57 0 -87 -40t-30 -135v-234h-80v624h-57v51h57v150h80v-150h139v-51z" />
    <glyph glyph-name="Itilde" unicode="&#x128;" horiz-adv-x="239" 
d="M78 754h84v-754h-84v754zM250 967l47 -38q-16 -38 -44.5 -59.5t-61.5 -21.5q-25 0 -74.5 22.5t-70.5 22.5q-29 0 -50 -46l-49 39q46 79 102 79q32 0 82 -23t63 -23q31 0 56 48z" />
    <glyph glyph-name="itilde" unicode="&#x129;" horiz-adv-x="262" 
d="M91 470h80v-470h-80v470zM262 708l47 -38q-16 -38 -44.5 -59.5t-61.5 -21.5q-26 0 -75 22.5t-70 22.5q-31 0 -50 -46l-49 39q46 79 102 79q32 0 82 -23t63 -23q30 0 56 48z" />
    <glyph glyph-name="Imacron" unicode="&#x12a;" horiz-adv-x="239" 
d="M78 754h84v-754h-84v754zM-51 941h342v-68h-342v68z" />
    <glyph glyph-name="imacron" unicode="&#x12b;" horiz-adv-x="262" 
d="M2 682h262v-68h-262v68zM91 470h80v-470h-80v470z" />
    <glyph glyph-name="Iogonek" unicode="&#x12e;" horiz-adv-x="239" 
d="M78 754h84v-754h-13q-80 -58 -80 -102q0 -50 53 -50q32 0 60 18l-8 -61q-33 -15 -63 -15q-46 0 -77.5 26t-31.5 67q0 64 83 117h-7v754z" />
    <glyph glyph-name="iogonek" unicode="&#x12f;" horiz-adv-x="262" 
d="M188 647q0 -23 -16 -40t-41 -17t-41 17t-16 40t17 40t40 17t40 -17t17 -40zM91 470h80v-470h-8q-80 -57 -80 -102q0 -50 53 -50q32 0 60 18l-8 -61q-30 -15 -63 -15q-46 0 -77.5 26t-31.5 67q0 67 83 117h-8v470z" />
    <glyph glyph-name="Idotaccent" unicode="&#x130;" horiz-adv-x="239" 
d="M78 754h84v-754h-84v754zM187 921q0 -23 -15.5 -38.5t-38.5 -15.5t-38.5 15.5t-15.5 38.5t15.5 38.5t38.5 15.5t38.5 -15t15.5 -39z" />
    <glyph glyph-name="dotlessi" unicode="&#x131;" horiz-adv-x="262" 
d="M91 470h80v-470h-80v470z" />
    <glyph glyph-name="Jcircumflex" unicode="&#x134;" horiz-adv-x="314" 
d="M152 754h84v-633q0 -83 -36 -134q-46 -65 -132 -65q-66 0 -134 56l47 65q27 -25 46 -34t43 -9q40 0 61 33t21 113v608zM38 863l156 133l158 -133l-58 -45l-100 85l-99 -85z" />
    <glyph glyph-name="jcircumflex" unicode="&#x135;" horiz-adv-x="262" 
d="M91 470h80v-734h-80v734zM-25 609l156 133l158 -133l-58 -45l-100 85l-99 -85z" />
    <glyph glyph-name="Kcommaaccent" unicode="&#x136;" horiz-adv-x="611" 
d="M76 754h84v-323l321 323h113l-354 -351l366 -403h-116l-309 346l-21 -21v-325h-84v754zM236 -274v48q31 5 49 25.5t18 53.5h-47v90h102v-84q0 -53 -32 -89.5t-90 -43.5z" />
    <glyph glyph-name="kcommaaccent" unicode="&#x137;" horiz-adv-x="470" 
d="M72 825h80v-529l171 174h107l-201 -200l239 -270h-106l-189 214l-21 -21v-193h-80v825zM173 -274v48q31 5 49 25.5t18 53.5h-47v90h102v-84q0 -53 -32 -89.5t-90 -43.5z" />
    <glyph glyph-name="Lacute" unicode="&#x139;" horiz-adv-x="375" 
d="M76 754h84v-676h208v-78h-292v754zM206 992l84 -38l-153 -154l-50 28z" />
    <glyph glyph-name="lacute" unicode="&#x13a;" horiz-adv-x="227" 
d="M74 825h80v-825h-80v825zM194 1038l84 -38l-153 -154l-50 28z" />
    <glyph glyph-name="Lcommaaccent" unicode="&#x13b;" horiz-adv-x="375" 
d="M76 754h84v-676h208v-78h-292v754zM143 -274v48q31 5 49 25.5t18 53.5h-47v90h102v-84q0 -53 -32 -89.5t-90 -43.5z" />
    <glyph glyph-name="lcommaaccent" unicode="&#x13c;" horiz-adv-x="227" 
d="M74 825h80v-825h-80v825zM44 -274v48q31 5 49 25.5t18 53.5h-47v90h102v-84q0 -53 -32 -89.5t-90 -43.5z" />
    <glyph glyph-name="Lcaron" unicode="&#x13d;" horiz-adv-x="375" 
d="M76 754h84v-676h208v-78h-292v754zM289 752l87 -17l-99 -188l-55 16z" />
    <glyph glyph-name="lcaron" unicode="&#x13e;" horiz-adv-x="227" 
d="M74 825h80v-825h-80v825zM257 752l87 -17l-99 -188l-55 16z" />
    <glyph glyph-name="Ldot" unicode="&#x13f;" horiz-adv-x="375" 
d="M76 754h84v-676h208v-78h-292v754zM367 443q0 -23 -15.5 -38.5t-38.5 -15.5t-38.5 15.5t-15.5 38.5t15.5 38.5t38.5 15.5t38.5 -15t15.5 -39z" />
    <glyph glyph-name="ldot" unicode="&#x140;" horiz-adv-x="318" 
d="M74 825h80v-825h-80v825zM327 475q0 -23 -15.5 -38.5t-38.5 -15.5t-38.5 15.5t-15.5 38.5t15.5 38.5t38.5 15.5t38.5 -15t15.5 -39z" />
    <glyph glyph-name="Lslash" unicode="&#x141;" horiz-adv-x="375" 
d="M76 754h84v-300l130 84v-80l-130 -84v-296h208v-78h-292v319l-76 -49v80l76 49v355z" />
    <glyph glyph-name="lslash" unicode="&#x142;" horiz-adv-x="258" 
d="M89 825h80v-330l74 49v-71l-74 -49v-424h-80v370l-74 -49v71l74 49v384z" />
    <glyph glyph-name="Nacute" unicode="&#x143;" horiz-adv-x="834" 
d="M81 0v786l588 -616v584h84v-788l-588 615v-581h-84zM507 1003l84 -38l-153 -154l-50 28z" />
    <glyph glyph-name="nacute" unicode="&#x144;" horiz-adv-x="528" 
d="M452 284v-284h-80v274q0 77 -24 106t-75 29q-60 0 -88.5 -40.5t-28.5 -137.5v-231h-80v470h80v-57h2q51 70 134 70q160 0 160 -199zM343 744l84 -38l-153 -154l-50 28z" />
    <glyph glyph-name="Ncommaaccent" unicode="&#x145;" horiz-adv-x="834" 
d="M81 0v786l588 -616v584h84v-788l-588 615v-581h-84zM337 -274v48q31 5 49 25.5t18 53.5h-47v90h102v-84q0 -53 -32 -89.5t-90 -43.5z" />
    <glyph glyph-name="ncommaaccent" unicode="&#x146;" horiz-adv-x="528" 
d="M452 284v-284h-80v274q0 77 -24 106t-75 29q-60 0 -88.5 -40.5t-28.5 -137.5v-231h-80v470h80v-57h2q51 70 134 70q160 0 160 -199zM189 -274v48q31 5 49 25.5t18 53.5h-47v90h102v-84q0 -53 -32 -89.5t-90 -43.5z" />
    <glyph glyph-name="Ncaron" unicode="&#x147;" horiz-adv-x="834" 
d="M81 0v786l588 -616v584h84v-788l-588 615v-581h-84zM262 951l58 45l100 -85l99 85l57 -45l-156 -133z" />
    <glyph glyph-name="ncaron" unicode="&#x148;" horiz-adv-x="528" 
d="M452 284v-284h-80v274q0 77 -24 106t-75 29q-60 0 -88.5 -40.5t-28.5 -137.5v-231h-80v470h80v-57h2q51 70 134 70q160 0 160 -199zM111 692l58 45l100 -85l99 85l57 -45l-156 -133z" />
    <glyph glyph-name="Omacron" unicode="&#x14c;" horiz-adv-x="862" 
d="M824 376q0 -160 -114.5 -274.5t-278.5 -114.5q-162 0 -277.5 114.5t-115.5 274.5t115 275.5t278 115.5t278 -115.5t115 -275.5zM431 65q128 0 218.5 92.5t90.5 219.5q0 128 -89.5 220t-220.5 92q-128 0 -218 -92t-90 -220t91 -220t218 -92zM261 941h342v-68h-342v68z" />
    <glyph glyph-name="omacron" unicode="&#x14d;" horiz-adv-x="562" 
d="M528 234q0 -103 -71.5 -175t-175.5 -72q-103 0 -175 71.5t-72 175.5q0 103 71.5 176t175.5 73t175.5 -73.5t71.5 -175.5zM281 61q73 0 120 50t47 124t-47.5 124t-120.5 50q-72 0 -119 -50t-47 -124t48 -124t119 -50zM112 682h342v-68h-342v68z" />
    <glyph glyph-name="Obreve" unicode="&#x14e;" horiz-adv-x="862" 
d="M824 376q0 -160 -114.5 -274.5t-278.5 -114.5q-162 0 -277.5 114.5t-115.5 274.5t115 275.5t278 115.5t278 -115.5t115 -275.5zM431 65q128 0 218.5 92.5t90.5 219.5q0 128 -89.5 220t-220.5 92q-128 0 -218 -92t-90 -220t91 -220t218 -92zM266 975h69q26 -68 95 -68
t95 68h69q-9 -62 -54.5 -99t-109.5 -37q-62 0 -109.5 38.5t-54.5 97.5z" />
    <glyph glyph-name="obreve" unicode="&#x14f;" horiz-adv-x="562" 
d="M528 234q0 -103 -71.5 -175t-175.5 -72q-103 0 -175 71.5t-72 175.5q0 103 71.5 176t175.5 73t175.5 -73.5t71.5 -175.5zM281 61q73 0 120 50t47 124t-47.5 124t-120.5 50q-72 0 -119 -50t-47 -124t48 -124t119 -50zM119 716h69q26 -68 95 -68t95 68h69q-9 -62 -54.5 -99
t-109.5 -37q-63 0 -110 38t-54 98z" />
    <glyph glyph-name="Ohungarumlaut" unicode="&#x150;" horiz-adv-x="862" 
d="M824 376q0 -160 -114.5 -274.5t-278.5 -114.5q-162 0 -277.5 114.5t-115.5 274.5t115 275.5t278 115.5t278 -115.5t115 -275.5zM431 65q128 0 218.5 92.5t90.5 219.5q0 128 -89.5 220t-220.5 92q-128 0 -218 -92t-90 -220t91 -220t218 -92zM402 1015l76 -14l-95 -159
l-40 11zM559 1015l76 -14l-95 -159l-40 11z" />
    <glyph glyph-name="ohungarumlaut" unicode="&#x151;" horiz-adv-x="562" 
d="M528 234q0 -103 -71.5 -175t-175.5 -72q-103 0 -175 71.5t-72 175.5q0 103 71.5 176t175.5 73t175.5 -73.5t71.5 -175.5zM281 61q73 0 120 50t47 124t-47.5 124t-120.5 50q-72 0 -119 -50t-47 -124t48 -124t119 -50zM241 756l76 -14l-95 -159l-40 11zM398 756l76 -14
l-95 -159l-40 11z" />
    <glyph glyph-name="OE" unicode="&#x152;" horiz-adv-x="1190" 
d="M727 606h2v148h394v-78h-310v-224h301v-78h-301v-296h310v-78h-394v145h-2q-48 -75 -126.5 -116.5t-166.5 -41.5q-166 0 -281 114t-115 275q0 160 115.5 275.5t277.5 115.5q89 0 167.5 -42.5t128.5 -118.5zM431 65q129 0 219 92t90 220t-89.5 220t-220.5 92
q-128 0 -218 -92t-90 -220t91 -220t218 -92z" />
    <glyph glyph-name="oe" unicode="&#x153;" horiz-adv-x="940" 
d="M489 369q27 54 80.5 84t113.5 30q100 0 161.5 -69.5t61.5 -177.5v-18h-371q1 -69 45 -113t109 -44q89 0 143 97l68 -39q-71 -132 -216 -132q-62 0 -116 31t-79 81q-29 -51 -86 -81.5t-122 -30.5q-103 0 -175 71.5t-72 175.5t72.5 176.5t172.5 72.5q63 0 121.5 -30
t88.5 -84zM283 61q74 0 120.5 50.5t46.5 123.5q0 74 -47.5 124t-120.5 50q-71 0 -118.5 -50.5t-47.5 -123.5q0 -74 48 -124t119 -50zM542 286h281q-10 54 -49.5 88.5t-88.5 34.5q-50 0 -93 -35.5t-50 -87.5z" />
    <glyph glyph-name="Racute" unicode="&#x154;" horiz-adv-x="542" 
d="M76 754h115q270 0 270 -208q0 -87 -51 -144t-138 -64l240 -338h-103l-228 331h-21v-331h-84v754zM160 676v-271h37q180 0 180 135q0 63 -36 99.5t-137 36.5h-44zM296 1003l84 -38l-153 -154l-50 28z" />
    <glyph glyph-name="racute" unicode="&#x155;" horiz-adv-x="335" 
d="M330 461l-38 -73q-30 21 -48 21q-92 0 -92 -169v-240h-80v470h80v-51h2q27 37 50 50.5t54 13.5q33 0 72 -22zM223 744l84 -38l-153 -154l-50 28z" />
    <glyph glyph-name="Rcommaaccent" unicode="&#x156;" horiz-adv-x="542" 
d="M76 754h115q270 0 270 -208q0 -87 -51 -144t-138 -64l240 -338h-103l-228 331h-21v-331h-84v754zM160 676v-271h37q180 0 180 135q0 63 -36 99.5t-137 36.5h-44zM189 -274v48q31 5 49 25.5t18 53.5h-47v90h102v-84q0 -53 -32 -89.5t-90 -43.5z" />
    <glyph glyph-name="rcommaaccent" unicode="&#x157;" horiz-adv-x="335" 
d="M330 461l-38 -73q-30 21 -48 21q-92 0 -92 -169v-240h-80v470h80v-51h2q27 37 50 50.5t54 13.5q33 0 72 -22zM47 -274v48q31 5 49 25.5t18 53.5h-47v90h102v-84q0 -53 -32 -89.5t-90 -43.5z" />
    <glyph glyph-name="Rcaron" unicode="&#x158;" horiz-adv-x="542" 
d="M76 754h115q270 0 270 -208q0 -87 -51 -144t-138 -64l240 -338h-103l-228 331h-21v-331h-84v754zM160 676v-271h37q180 0 180 135q0 63 -36 99.5t-137 36.5h-44zM83 951l58 45l100 -85l99 85l57 -45l-156 -133z" />
    <glyph glyph-name="rcaron" unicode="&#x159;" horiz-adv-x="335" 
d="M330 461l-38 -73q-30 21 -48 21q-92 0 -92 -169v-240h-80v470h80v-51h2q27 37 50 50.5t54 13.5q33 0 72 -22zM3 692l58 45l100 -85l99 85l57 -45l-156 -133z" />
    <glyph glyph-name="Sacute" unicode="&#x15a;" horiz-adv-x="559" 
d="M485 650l-67 -43q-47 82 -129 82q-54 0 -90 -33t-36 -84q0 -30 19 -54q12 -15 34 -29.5t38.5 -22.5t52.5 -24t48 -21q74 -34 115.5 -79.5t41.5 -121.5q0 -97 -69 -165t-168 -68q-89 0 -152.5 52.5t-82.5 142.5l82 23q10 -63 52 -101.5t99 -38.5q63 0 109 43t46 104
q0 60 -39 92t-137 74q-96 40 -134.5 86.5t-38.5 110.5q0 84 61.5 138t149.5 54q131 0 195 -117zM359 1003l84 -38l-153 -154l-50 28z" />
    <glyph glyph-name="sacute" unicode="&#x15b;" horiz-adv-x="399" 
d="M333 396l-67 -35q-23 48 -64 48q-23 0 -40.5 -15.5t-17.5 -36.5q0 -22 19.5 -38.5t64.5 -33.5q65 -24 93 -50q41 -37 41 -95q0 -66 -46.5 -109.5t-112.5 -43.5q-58 0 -102.5 31.5t-63.5 87.5l71 30q18 -41 40.5 -58t55.5 -17t54.5 20.5t21.5 51.5t-22.5 49.5t-70.5 37.5
q-52 21 -74 38q-45 34 -45 92q0 57 40 95t100 38q39 0 74 -24t51 -63zM272 744l84 -38l-153 -154l-50 28z" />
    <glyph glyph-name="Scircumflex" unicode="&#x15c;" horiz-adv-x="559" 
d="M485 650l-67 -43q-47 82 -129 82q-54 0 -90 -33t-36 -84q0 -30 19 -54q12 -15 34 -29.5t38.5 -22.5t52.5 -24t48 -21q74 -34 115.5 -79.5t41.5 -121.5q0 -97 -69 -165t-168 -68q-89 0 -152.5 52.5t-82.5 142.5l82 23q10 -63 52 -101.5t99 -38.5q63 0 109 43t46 104
q0 60 -39 92t-137 74q-96 40 -134.5 86.5t-38.5 110.5q0 84 61.5 138t149.5 54q131 0 195 -117zM141 863l156 133l158 -133l-58 -45l-100 85l-99 -85z" />
    <glyph glyph-name="scircumflex" unicode="&#x15d;" horiz-adv-x="399" 
d="M333 396l-67 -35q-23 48 -64 48q-23 0 -40.5 -15.5t-17.5 -36.5q0 -22 19.5 -38.5t64.5 -33.5q65 -24 93 -50q41 -37 41 -95q0 -66 -46.5 -109.5t-112.5 -43.5q-58 0 -102.5 31.5t-63.5 87.5l71 30q18 -41 40.5 -58t55.5 -17t54.5 20.5t21.5 51.5t-22.5 49.5t-70.5 37.5
q-52 21 -74 38q-45 34 -45 92q0 57 40 95t100 38q39 0 74 -24t51 -63zM48 604l156 133l158 -133l-58 -45l-100 85l-99 -85z" />
    <glyph glyph-name="Scedilla" unicode="&#x15e;" horiz-adv-x="559" 
d="M189 -171l96 148l74 -30l-114 -146zM485 650l-67 -43q-47 82 -129 82q-54 0 -90 -33t-36 -84q0 -30 19 -54q12 -15 34 -29.5t38.5 -22.5t52.5 -24t48 -21q74 -34 115.5 -79.5t41.5 -121.5q0 -97 -69 -165t-168 -68q-89 0 -152.5 52.5t-82.5 142.5l82 23q10 -63 52 -101.5
t99 -38.5q63 0 109 43t46 104q0 60 -39 92t-137 74q-96 40 -134.5 86.5t-38.5 110.5q0 84 61.5 138t149.5 54q131 0 195 -117z" />
    <glyph glyph-name="scedilla" unicode="&#x15f;" horiz-adv-x="399" 
d="M333 396l-67 -35q-23 48 -64 48q-23 0 -40.5 -15.5t-17.5 -36.5q0 -22 19.5 -38.5t64.5 -33.5q65 -24 93 -50q41 -37 41 -95q0 -66 -46.5 -109.5t-112.5 -43.5q-58 0 -102.5 31.5t-63.5 87.5l71 30q18 -41 40.5 -58t55.5 -17t54.5 20.5t21.5 51.5t-22.5 49.5t-70.5 37.5
q-52 21 -74 38q-45 34 -45 92q0 57 40 95t100 38q39 0 74 -24t51 -63zM108 -171l96 148l74 -30l-114 -146z" />
    <glyph glyph-name="Scaron" unicode="&#x160;" horiz-adv-x="559" 
d="M485 650l-67 -43q-47 82 -129 82q-54 0 -90 -33t-36 -84q0 -30 19 -54q12 -15 34 -29.5t38.5 -22.5t52.5 -24t48 -21q74 -34 115.5 -79.5t41.5 -121.5q0 -97 -69 -165t-168 -68q-89 0 -152.5 52.5t-82.5 142.5l82 23q10 -63 52 -101.5t99 -38.5q63 0 109 43t46 104
q0 60 -39 92t-137 74q-96 40 -134.5 86.5t-38.5 110.5q0 84 61.5 138t149.5 54q131 0 195 -117zM133 951l58 45l100 -85l99 85l57 -45l-156 -133z" />
    <glyph glyph-name="scaron" unicode="&#x161;" horiz-adv-x="399" 
d="M333 396l-67 -35q-23 48 -64 48q-23 0 -40.5 -15.5t-17.5 -36.5q0 -22 19.5 -38.5t64.5 -33.5q65 -24 93 -50q41 -37 41 -95q0 -66 -46.5 -109.5t-112.5 -43.5q-58 0 -102.5 31.5t-63.5 87.5l71 30q18 -41 40.5 -58t55.5 -17t54.5 20.5t21.5 51.5t-22.5 49.5t-70.5 37.5
q-52 21 -74 38q-45 34 -45 92q0 57 40 95t100 38q39 0 74 -24t51 -63zM44 692l58 45l100 -85l99 85l57 -45l-156 -133z" />
    <glyph glyph-name="Tcommaaccent" unicode="&#x162;" horiz-adv-x="470" 
d="M10 754h450v-78h-184v-676h-84v676h-182v78zM161 -274v48q31 5 49 25.5t18 53.5h-47v90h102v-84q0 -53 -32 -89.5t-90 -43.5z" />
    <glyph glyph-name="tcommaaccent" unicode="&#x163;" horiz-adv-x="240" 
d="M80 639h80v-169h84v-74h-84v-396h-80v396h-49v74h49v169zM56 -274v48q31 5 49 25.5t18 53.5h-47v90h102v-84q0 -53 -32 -89.5t-90 -43.5z" />
    <glyph glyph-name="Tcaron" unicode="&#x164;" horiz-adv-x="470" 
d="M10 754h450v-78h-184v-676h-84v676h-182v78zM78 951l58 45l100 -85l99 85l57 -45l-156 -133z" />
    <glyph glyph-name="tcaron" unicode="&#x165;" horiz-adv-x="240" 
d="M80 639h80v-169h84v-74h-84v-396h-80v396h-49v74h49v169zM295 752l87 -17l-99 -188l-55 16z" />
    <glyph glyph-name="Tbar" unicode="&#x166;" horiz-adv-x="470" 
d="M10 754h450v-78h-184v-207h94v-51h-94v-418h-84v418h-98v51h98v207h-182v78z" />
    <glyph glyph-name="tbar" unicode="&#x167;" horiz-adv-x="240" 
d="M80 639h80v-169h84v-74h-84v-94h65v-51h-65v-251h-80v251h-39v51h39v94h-49v74h49v169z" />
    <glyph glyph-name="Utilde" unicode="&#x168;" horiz-adv-x="685" 
d="M74 754h84v-465q0 -82 16.5 -123.5t63.5 -70.5q49 -30 105 -30t104 29.5t64 69.5q17 42 17 127v463h84v-481q0 -103 -35 -160q-36 -58 -99 -92t-135 -34q-51 0 -102 19t-86 52q-43 41 -62 86t-19 131v479zM475 967l47 -38q-16 -38 -44.5 -59.5t-61.5 -21.5
q-25 0 -74.5 22.5t-70.5 22.5q-29 0 -50 -46l-49 39q46 79 102 79q32 0 82 -23t63 -23q31 0 56 48z" />
    <glyph glyph-name="utilde" unicode="&#x169;" horiz-adv-x="512" 
d="M70 470h80v-269q0 -79 25 -109.5t81 -30.5q54 0 80 29.5t26 106.5v273h80v-276q0 -207 -186 -207t-186 207v276zM387 708l47 -38q-16 -38 -44.5 -59.5t-61.5 -21.5q-26 0 -75 22.5t-70 22.5q-31 0 -50 -46l-49 39q46 79 102 79q32 0 82 -23t63 -23q30 0 56 48z" />
    <glyph glyph-name="Umacron" unicode="&#x16a;" horiz-adv-x="685" 
d="M74 754h84v-465q0 -82 16.5 -123.5t63.5 -70.5q49 -30 105 -30t104 29.5t64 69.5q17 42 17 127v463h84v-481q0 -103 -35 -160q-36 -58 -99 -92t-135 -34q-51 0 -102 19t-86 52q-43 41 -62 86t-19 131v479zM172 941h342v-68h-342v68z" />
    <glyph glyph-name="umacron" unicode="&#x16b;" horiz-adv-x="512" 
d="M70 470h80v-269q0 -79 25 -109.5t81 -30.5q54 0 80 29.5t26 106.5v273h80v-276q0 -207 -186 -207t-186 207v276zM84 682h342v-68h-342v68z" />
    <glyph glyph-name="Ubreve" unicode="&#x16c;" horiz-adv-x="685" 
d="M74 754h84v-465q0 -82 16.5 -123.5t63.5 -70.5q49 -30 105 -30t104 29.5t64 69.5q17 42 17 127v463h84v-481q0 -103 -35 -160q-36 -58 -99 -92t-135 -34q-51 0 -102 19t-86 52q-43 41 -62 86t-19 131v479zM180 975h69q26 -68 95 -68t95 68h69q-9 -62 -54.5 -99
t-109.5 -37q-62 0 -109.5 38.5t-54.5 97.5z" />
    <glyph glyph-name="ubreve" unicode="&#x16d;" horiz-adv-x="512" 
d="M70 470h80v-269q0 -79 25 -109.5t81 -30.5q54 0 80 29.5t26 106.5v273h80v-276q0 -207 -186 -207t-186 207v276zM94 716h69q26 -68 95 -68t95 68h69q-9 -62 -54.5 -99t-109.5 -37q-63 0 -110 38t-54 98z" />
    <glyph glyph-name="Uring" unicode="&#x16e;" horiz-adv-x="685" 
d="M74 754h84v-465q0 -82 16.5 -123.5t63.5 -70.5q49 -30 105 -30t104 29.5t64 69.5q17 42 17 127v463h84v-481q0 -103 -35 -160q-36 -58 -99 -92t-135 -34q-51 0 -102 19t-86 52q-43 41 -62 86t-19 131v479zM440 909q0 -41 -28 -69.5t-69 -28.5t-69.5 29t-28.5 69
q0 39 29 68t69 29t68.5 -29t28.5 -68zM343 861q20 0 33.5 13.5t13.5 34.5q0 20 -13.5 33.5t-34.5 13.5q-20 0 -33.5 -13.5t-13.5 -33.5q0 -21 14 -34.5t34 -13.5z" />
    <glyph glyph-name="uring" unicode="&#x16f;" horiz-adv-x="512" 
d="M70 470h80v-269q0 -79 25 -109.5t81 -30.5q54 0 80 29.5t26 106.5v273h80v-276q0 -207 -186 -207t-186 207v276zM351 650q0 -41 -28 -69.5t-69 -28.5t-69.5 29t-28.5 69q0 39 29 68t69 29t68.5 -29t28.5 -68zM254 602q20 0 33.5 13.5t13.5 34.5q0 20 -13.5 33.5
t-34.5 13.5q-20 0 -33.5 -13.5t-13.5 -33.5q0 -21 13.5 -34.5t34.5 -13.5z" />
    <glyph glyph-name="Uhungarumlaut" unicode="&#x170;" horiz-adv-x="685" 
d="M74 754h84v-465q0 -82 16.5 -123.5t63.5 -70.5q49 -30 105 -30t104 29.5t64 69.5q17 42 17 127v463h84v-481q0 -103 -35 -160q-36 -58 -99 -92t-135 -34q-51 0 -102 19t-86 52q-43 41 -62 86t-19 131v479zM293 1015l76 -14l-95 -159l-40 11zM450 1015l76 -14l-95 -159
l-40 11z" />
    <glyph glyph-name="uhungarumlaut" unicode="&#x171;" horiz-adv-x="512" 
d="M70 470h80v-269q0 -79 25 -109.5t81 -30.5q54 0 80 29.5t26 106.5v273h80v-276q0 -207 -186 -207t-186 207v276zM218 756l76 -14l-95 -159l-40 11zM375 756l76 -14l-95 -159l-40 11z" />
    <glyph glyph-name="Uogonek" unicode="&#x172;" horiz-adv-x="685" 
d="M74 754h84v-468q0 -77 16.5 -119.5t63.5 -72.5q46 -29 105 -29q56 0 104 29.5t64 69.5q17 42 17 127v463h84v-481q0 -83 -20.5 -131t-64.5 -88q-52 -47 -126 -61q-70 -53 -70 -95q0 -50 53 -50q32 0 60 18l-8 -61q-30 -15 -63 -15q-46 0 -77.5 26t-31.5 67q0 58 64 105
q-66 2 -129.5 37.5t-96.5 99.5q-28 53 -28 141v488z" />
    <glyph glyph-name="uogonek" unicode="&#x173;" horiz-adv-x="512" 
d="M70 470h80v-267q0 -80 25 -111t81 -31q53 0 79.5 29t26.5 107v273h80v-276q0 -168 -121 -199l-5 -4q-6 -4 -12 -9t-14 -12t-14.5 -15t-13 -17.5t-10 -19.5t-3.5 -20q0 -50 53 -50q32 0 60 18l-8 -61q-33 -15 -63 -15q-46 0 -77.5 26t-31.5 67q0 60 63 104
q-175 3 -175 207v276z" />
    <glyph glyph-name="Wcircumflex" unicode="&#x174;" horiz-adv-x="1091" 
d="M302 189l244 604l244 -604l198 565h91l-289 -793l-244 607l-244 -607l-289 793h91zM390 863l156 133l158 -133l-58 -45l-100 85l-99 -85z" />
    <glyph glyph-name="wcircumflex" unicode="&#x175;" horiz-adv-x="760" 
d="M233 152l146 354l147 -354l140 318h91l-233 -503l-145 350l-145 -350l-231 503h91zM225 604l156 133l158 -133l-58 -45l-100 85l-99 -85z" />
    <glyph glyph-name="Ycircumflex" unicode="&#x176;" horiz-adv-x="593" 
d="M8 754h97l192 -336l192 336h97l-247 -430v-324h-84v324zM139 863l156 133l158 -133l-58 -45l-100 85l-99 -85z" />
    <glyph glyph-name="ycircumflex" unicode="&#x177;" horiz-adv-x="498" 
d="M-2 470h93l166 -337l152 337h91l-347 -734h-91l152 308zM100 604l156 133l158 -133l-58 -45l-100 85l-99 -85z" />
    <glyph glyph-name="Ydieresis" unicode="&#x178;" horiz-adv-x="593" 
d="M8 754h97l192 -336l192 336h97l-247 -430v-324h-84v324zM264 910q0 -23 -15.5 -38.5t-38.5 -15.5t-38.5 15.5t-15.5 38.5q0 22 15 38t39 16q23 0 38.5 -15.5t15.5 -38.5zM461 910q0 -22 -15 -38t-39 -16q-23 0 -38.5 15.5t-15.5 38.5t15.5 38.5t38.5 15.5t38.5 -15.5
t15.5 -38.5z" />
    <glyph glyph-name="Zacute" unicode="&#x179;" horiz-adv-x="586" 
d="M66 754h499l-412 -676h401v-78h-540l411 676h-359v78zM379 1003l84 -38l-153 -154l-50 28z" />
    <glyph glyph-name="zacute" unicode="&#x17a;" horiz-adv-x="519" 
d="M73 470h437l-338 -396h324v-74h-486l339 396h-276v74zM351 744l84 -38l-153 -154l-50 28z" />
    <glyph glyph-name="Zdotaccent" unicode="&#x17b;" horiz-adv-x="586" 
d="M66 754h499l-412 -676h401v-78h-540l411 676h-359v78zM364 921q0 -23 -15.5 -38.5t-38.5 -15.5t-38.5 15.5t-15.5 38.5t15.5 38.5t38.5 15.5t38.5 -15t15.5 -39z" />
    <glyph glyph-name="zdotaccent" unicode="&#x17c;" horiz-adv-x="519" 
d="M73 470h437l-338 -396h324v-74h-486l339 396h-276v74zM346 662q0 -23 -15.5 -38.5t-38.5 -15.5t-38.5 15.5t-15.5 38.5t15.5 38.5t38.5 15.5t38.5 -15t15.5 -39z" />
    <glyph glyph-name="Zcaron" unicode="&#x17d;" horiz-adv-x="586" 
d="M66 754h499l-412 -676h401v-78h-540l411 676h-359v78zM148 951l58 45l100 -85l99 85l57 -45l-156 -133z" />
    <glyph glyph-name="zcaron" unicode="&#x17e;" horiz-adv-x="519" 
d="M73 470h437l-338 -396h324v-74h-486l339 396h-276v74zM118 692l58 45l100 -85l99 85l57 -45l-156 -133z" />
    <glyph glyph-name="florin" unicode="&#x192;" 
d="M538 825l-15 -75q-23 11 -50 11q-51 0 -67 -39q-15 -36 -26 -99l-22 -121h120l-11 -68h-121l-65 -354q-13 -70 -31 -110.5t-47 -63.5q-59 -46 -144 -46q-9 0 -26.5 2t-27.5 2l16 75q13 -1 39 -1q78 0 111 60q19 35 32 108l60 328h-82l11 68h84l31 174q16 87 57 124.5
t106 37.5q35 0 68 -13z" />
    <glyph glyph-name="Scommaaccent" unicode="&#x218;" horiz-adv-x="559" 
d="M485 650l-67 -43q-47 82 -129 82q-54 0 -90 -33t-36 -84q0 -30 19 -54q12 -15 34 -29.5t38.5 -22.5t52.5 -24t48 -21q74 -34 115.5 -79.5t41.5 -121.5q0 -97 -69 -165t-168 -68q-89 0 -152.5 52.5t-82.5 142.5l82 23q10 -63 52 -101.5t99 -38.5q63 0 109 43t46 104
q0 60 -39 92t-137 74q-96 40 -134.5 86.5t-38.5 110.5q0 84 61.5 138t149.5 54q131 0 195 -117zM220 -274v48q31 5 49 25.5t18 53.5h-47v90h102v-84q0 -53 -32 -89.5t-90 -43.5z" />
    <glyph glyph-name="scommaaccent" unicode="&#x219;" horiz-adv-x="399" 
d="M333 396l-67 -35q-23 48 -64 48q-23 0 -40.5 -15.5t-17.5 -36.5q0 -22 19.5 -38.5t64.5 -33.5q65 -24 93 -50q41 -37 41 -95q0 -66 -46.5 -109.5t-112.5 -43.5q-58 0 -102.5 31.5t-63.5 87.5l71 30q18 -41 40.5 -58t55.5 -17t54.5 20.5t21.5 51.5t-22.5 49.5t-70.5 37.5
q-52 21 -74 38q-45 34 -45 92q0 57 40 95t100 38q39 0 74 -24t51 -63zM133 -274v48q31 5 49 25.5t18 53.5h-47v90h102v-84q0 -53 -32 -89.5t-90 -43.5z" />
    <glyph glyph-name="uni021A" unicode="&#x21a;" horiz-adv-x="470" 
d="M10 754h450v-78h-184v-676h-84v676h-182v78zM161 -274v48q31 5 49 25.5t18 53.5h-47v90h102v-84q0 -53 -32 -89.5t-90 -43.5z" />
    <glyph glyph-name="uni021B" unicode="&#x21b;" horiz-adv-x="240" 
d="M80 639h80v-169h84v-74h-84v-396h-80v396h-49v74h49v169zM56 -274v48q31 5 49 25.5t18 53.5h-47v90h102v-84q0 -53 -32 -89.5t-90 -43.5z" />
    <glyph glyph-name="dotlessj" unicode="&#x237;" horiz-adv-x="262" 
d="M91 470h80v-734h-80v734z" />
    <glyph glyph-name="circumflex" unicode="&#x2c6;" horiz-adv-x="470" 
d="M78 604l156 133l158 -133l-58 -45l-100 85l-99 -85z" />
    <glyph glyph-name="caron" unicode="&#x2c7;" horiz-adv-x="470" 
d="M78 692l58 45l100 -85l99 85l57 -45l-156 -133z" />
    <glyph glyph-name="uni02C9" unicode="&#x2c9;" horiz-adv-x="499" 
d="M79 682h342v-68h-342v68z" />
    <glyph glyph-name="breve" unicode="&#x2d8;" horiz-adv-x="485" 
d="M79 716h69q26 -68 95 -68t95 68h69q-9 -62 -54.5 -99t-109.5 -37q-63 0 -110 38t-54 98z" />
    <glyph glyph-name="dotaccent" unicode="&#x2d9;" horiz-adv-x="358" 
d="M233 662q0 -23 -15.5 -38.5t-38.5 -15.5t-38.5 15.5t-15.5 38.5t15.5 38.5t38.5 15.5t38.5 -15t15.5 -39z" />
    <glyph glyph-name="ring" unicode="&#x2da;" horiz-adv-x="350" 
d="M273 650q0 -41 -28 -69.5t-69 -28.5t-69.5 29t-28.5 69q0 39 29 68t69 29t68.5 -29t28.5 -68zM176 602q20 0 33.5 13.5t13.5 34.5q0 20 -13.5 33.5t-34.5 13.5q-20 0 -33.5 -13.5t-13.5 -33.5q0 -21 13.5 -34.5t34.5 -13.5z" />
    <glyph glyph-name="ogonek" unicode="&#x2db;" horiz-adv-x="337" 
d="M161 0h64q-80 -57 -80 -102q0 -50 53 -50q32 0 60 18l-8 -61q-30 -15 -63 -15q-46 0 -77.5 26t-31.5 67q0 67 83 117z" />
    <glyph glyph-name="tilde" unicode="&#x2dc;" horiz-adv-x="506" 
d="M381 708l47 -38q-16 -38 -44.5 -59.5t-61.5 -21.5q-26 0 -75 22.5t-70 22.5q-31 0 -50 -46l-49 39q46 79 102 79q32 0 82 -23t63 -23q30 0 56 48z" />
    <glyph glyph-name="hungarumlaut" unicode="&#x2dd;" horiz-adv-x="467" 
d="M147 756l76 -14l-95 -159l-40 11zM304 756l76 -14l-95 -159l-40 11z" />
    <glyph glyph-name="uni0394" unicode="&#x394;" horiz-adv-x="714" 
d="M702 0h-688l294 755h91zM583 77l-230 590l-226 -590h456z" />
    <glyph glyph-name="uni03A9" unicode="&#x3a9;" horiz-adv-x="793" 
d="M730 0h-273v194q90 16 139.5 82.5t49.5 158.5q0 108 -73.5 180.5t-181.5 72.5q-109 0 -182.5 -72.5t-73.5 -180.5q0 -95 48 -159.5t139 -81.5v-194h-273v72h205v75q-96 29 -150.5 108.5t-54.5 182.5q0 140 100 233t242 93t240.5 -92t98.5 -233q0 -105 -53.5 -184
t-150.5 -108v-75h204v-72z" />
    <glyph glyph-name="uni03BC" unicode="&#x3bc;" horiz-adv-x="512" 
d="M150 470v-262q0 -27 1.5 -46t8 -39.5t17.5 -33t31 -20.5t48 -8t48 8t31 20.5t17.5 33t8 39.5t1.5 46v262h80v-271q0 -212 -186 -212q-57 0 -106 47v-298h-80v734h80z" />
    <glyph glyph-name="pi" unicode="&#x3c0;" horiz-adv-x="571" 
d="M538 69v-57q-38 -19 -69 -19q-30 0 -48.5 9t-26.5 28.5t-10 37t-2 47.5v285h-205v-400h-76v400h-70v70h503v-70h-77v-286q0 -18 1.5 -28t10.5 -18.5t26 -8.5q22 0 43 10z" />
    <glyph glyph-name="uni1E9E" unicode="&#x1e9e;" horiz-adv-x="676" 
d="M554 757l-2 -76q-65 -2 -116.5 -37.5t-51.5 -92.5q0 -25 14 -47t29.5 -35t49 -37t51.5 -39q65 -54 90 -97.5t25 -107.5q0 -92 -57 -147t-150 -54q-89 1 -141 38.5t-70 123.5l83 23q21 -107 129 -107q58 0 90 32t32 90q0 53 -26.5 87.5t-93.5 81.5q-73 51 -106 94t-33 101
q0 48 27.5 85.5t72.5 52.5q-26 2 -53 2q-90 0 -135.5 -38.5t-45.5 -123.5v-529h-84v540q0 122 70.5 175.5t204.5 53.5q83 0 197 -12z" />
    <glyph glyph-name="endash" unicode="&#x2013;" horiz-adv-x="500" 
d="M0 278h500v-74h-500v74z" />
    <glyph glyph-name="emdash" unicode="&#x2014;" horiz-adv-x="1000" 
d="M130 278h740v-74h-740v74z" />
    <glyph glyph-name="quoteleft" unicode="&#x2018;" horiz-adv-x="289" 
d="M61 512l114 255l54 -21l-94 -261z" />
    <glyph glyph-name="quoteright" unicode="&#x2019;" horiz-adv-x="289" 
d="M60 506l94 261l74 -27l-114 -255z" />
    <glyph glyph-name="quotesinglbase" unicode="&#x201a;" horiz-adv-x="289" 
d="M61 -150l94 260l74 -26l-114 -256z" />
    <glyph glyph-name="quotedblleft" unicode="&#x201c;" horiz-adv-x="457" 
d="M61 512l114 255l54 -21l-94 -261zM229 512l114 255l54 -21l-94 -261z" />
    <glyph glyph-name="quotedblright" unicode="&#x201d;" horiz-adv-x="457" 
d="M61 506l94 261l74 -27l-114 -255zM323 767l74 -27l-114 -255l-54 21z" />
    <glyph glyph-name="quotedblbase" unicode="&#x201e;" horiz-adv-x="464" 
d="M61 -150l94 260l74 -26l-114 -256zM330 110l74 -26l-114 -256l-54 22z" />
    <glyph glyph-name="dagger" unicode="&#x2020;" horiz-adv-x="592" 
d="M255 754h82v-185h167v-78h-167v-654h-82v654h-167v78h167v185z" />
    <glyph glyph-name="daggerdbl" unicode="&#x2021;" horiz-adv-x="592" 
d="M255 754h82v-185h167v-78h-167v-363h167v-78h-167v-213h-82v213h-167v78h167v363h-167v78h167v185z" />
    <glyph glyph-name="bullet" unicode="&#x2022;" horiz-adv-x="592" 
d="M485 377q0 -77 -55 -132.5t-135 -55.5q-77 0 -132 55t-55 134q0 78 54 133t133 55t134.5 -55t55.5 -134z" />
    <glyph glyph-name="ellipsis" unicode="&#x2026;" horiz-adv-x="1000" 
d="M224 44q0 -23 -16.5 -40t-39.5 -17t-39.5 17t-16.5 40q0 22 16.5 38.5t39.5 16.5t39.5 -16.5t16.5 -38.5zM556 44q0 -23 -16.5 -40t-39.5 -17t-39.5 17t-16.5 40q0 22 16.5 38.5t39.5 16.5t39.5 -16.5t16.5 -38.5zM888 44q0 -23 -16.5 -40t-39.5 -17t-39.5 17t-16.5 40
q0 22 16.5 38.5t39.5 16.5t39.5 -16.5t16.5 -38.5z" />
    <glyph glyph-name="perthousand" unicode="&#x2030;" horiz-adv-x="1212" 
d="M370 602q0 -68 -49.5 -116t-118.5 -48q-70 0 -119 47.5t-49 116.5t49.5 117t118.5 48q70 0 119 -48.5t49 -116.5zM160 13l439 754l40 -24l-436 -756zM202 502q42 0 73 30t31 70t-30.5 70.5t-73.5 30.5q-42 0 -73 -29.5t-31 -71.5q0 -40 31 -70t73 -30zM768 151
q0 -67 -49.5 -115.5t-118.5 -48.5q-70 0 -119 47.5t-49 116.5t49.5 117t118.5 48q70 0 119 -48.5t49 -116.5zM600 51q42 0 73 30t31 70t-30.5 70.5t-73.5 30.5q-42 0 -73 -29.5t-31 -71.5q0 -40 31 -70t73 -30zM1178 151q0 -67 -49.5 -115.5t-118.5 -48.5q-70 0 -119 47.5
t-49 116.5t49.5 117t118.5 48q70 0 119 -48.5t49 -116.5zM1010 51q42 0 73 30t31 70t-30.5 70.5t-73.5 30.5q-42 0 -73 -29.5t-31 -71.5q0 -40 31 -70t73 -30z" />
    <glyph glyph-name="guilsinglleft" unicode="&#x2039;" horiz-adv-x="330" 
d="M41 240l168 213l53 -42l-135 -171l135 -166l-53 -41z" />
    <glyph glyph-name="guilsinglright" unicode="&#x203a;" horiz-adv-x="330" 
d="M121 453l168 -213l-168 -207l-53 41l135 166l-135 171z" />
    <glyph glyph-name="fraction" unicode="&#x2044;" horiz-adv-x="161" 
d="M-161 11l439 756l44 -24l-439 -756z" />
    <glyph glyph-name="Euro" unicode="&#x20ac;" 
d="M575 729l-30 -73q-54 30 -131 30q-86 0 -146 -53t-81 -150h312l-22 -67h-300q-3 -12 -3 -50q0 -32 2 -39h280l-21 -66h-249q16 -94 77 -147.5t150 -53.5q81 0 140 40l33 -70q-70 -48 -181 -48q-120 0 -201.5 73.5t-105.5 205.5h-81l23 66h50q-1 16 -1 51q0 25 1 38h-72
l23 67h57q30 133 115 207t204 74q91 0 158 -35z" />
    <glyph glyph-name="uni20B9" unicode="&#x20b9;" 
d="M89 537v64h286q-23 89 -141 89h-145v64h505v-64h-187q41 -29 52 -89h135v-64h-132q-4 -94 -66.5 -140t-165.5 -46h-42l313 -351h-105l-307 349v70h114q81 0 128 25.5t47 92.5h-289z" />
    <glyph glyph-name="uni20BA" unicode="&#x20ba;" 
d="M129 0v315l-93 -40v69l93 40v99l-93 -41v69l93 40v203h84v-165l208 92v-69l-208 -92v-98l208 91v-69l-208 -91v-283q23 -3 46 -3q200 0 220 311h84q-23 -388 -307 -388q-20 0 -50.5 2.5t-53 5t-23.5 2.5z" />
    <glyph glyph-name="uni20BC" unicode="&#x20bc;" horiz-adv-x="762" 
d="M422 552v-482h-82v482q-61 -7 -108 -59.5t-72.5 -129.5t-37.5 -154.5t-12 -148.5v-60h-82v73q0 89 18 180t53 175t98 140t143 62v124h82v-124q80 -6 143 -62t98 -140t53 -175t18 -180v-73h-82v60q0 71 -12 148.5t-37.5 154.5t-72.5 129.5t-108 59.5z" />
    <glyph glyph-name="uni20BD" unicode="&#x20bd;" 
d="M241 211v-211h-84v211h-104v71h104v71h-104v71h104v330h190q112 0 181.5 -47.5t69.5 -146.5q0 -102 -65.5 -154.5t-174.5 -52.5h-117v-70h196v-72h-196zM241 677v-253h115q72 0 115 31.5t43 96.5q0 64 -43.5 94.5t-115.5 30.5h-114z" />
    <glyph glyph-name="afii61289" unicode="&#x2113;" horiz-adv-x="530" 
d="M418 89l29 -43q-64 -61 -145 -61q-64 0 -100 35.5t-36 103.5v108l-61 -62h-2l-31 44l94 90v272q0 86 39 137t101 51q56 0 89.5 -37.5t33.5 -102.5q0 -151 -184 -335v-151q0 -48 22.5 -68.5t54.5 -20.5q48 0 94 40h2zM359 619q0 39 -15 63t-38 24q-25 0 -43 -30t-18 -87
v-225q114 132 114 255z" />
    <glyph glyph-name="trademark" unicode="&#x2122;" horiz-adv-x="940" 
d="M36 754h341v-60h-140v-361h-60v361h-141v60zM458 754h101l121 -303l125 303h100v-421h-60v361h-2l-144 -361h-39l-140 361h-2v-361h-60v421z" />
    <glyph glyph-name="Omega" unicode="&#x2126;" horiz-adv-x="793" 
d="M730 0h-273v194q90 16 139.5 82.5t49.5 158.5q0 108 -73.5 180.5t-181.5 72.5q-109 0 -182.5 -72.5t-73.5 -180.5q0 -95 48 -159.5t139 -81.5v-194h-273v72h205v75q-96 29 -150.5 108.5t-54.5 182.5q0 140 100 233t242 93t240.5 -92t98.5 -233q0 -105 -53.5 -184
t-150.5 -108v-75h204v-72z" />
    <glyph glyph-name="estimated" unicode="&#x212e;" horiz-adv-x="903" 
d="M832 330h-617q-5 0 -5 -5v-176q0 -20 7 -28q79 -99 232 -99q134 0 249 108h67q-59 -70 -129 -101.5t-184 -31.5q-176 0 -279 97t-103 238q0 68 26.5 131t74 112t120.5 78.5t159 29.5q105 0 182.5 -31.5t119 -84.5t61 -112t19.5 -125zM692 355v180q0 13 -10 25
q-43 54 -107.5 76.5t-127.5 22.5q-134 0 -228 -97q-9 -9 -9 -26v-181q0 -5 5 -5h472q5 0 5 5z" />
    <glyph glyph-name="partialdiff" unicode="&#x2202;" horiz-adv-x="510" 
d="M468 361q0 -51 -5 -97.5t-20 -99t-39.5 -89.5t-67.5 -62t-99 -25q-92 0 -148 65.5t-56 159.5q0 91 54.5 152.5t144.5 61.5q94 0 161 -77q0 7 0.5 23t0.5 24q0 44 -8.5 87t-27 83.5t-54 65.5t-83.5 25q-54 0 -114 -46l-42 49q72 60 152 60q57 0 101.5 -22.5t72 -58
t45.5 -83.5t25 -96t7 -100zM389 274q-58 91 -149 91q-63 0 -98.5 -45.5t-35.5 -110.5q0 -63 35 -112t97 -49q40 0 70 22t46 58.5t24.5 72.5t10.5 73z" />
    <glyph glyph-name="Delta" unicode="&#x2206;" horiz-adv-x="714" 
d="M702 0h-688l294 755h91zM583 77l-230 590l-226 -590h456z" />
    <glyph glyph-name="product" unicode="&#x220f;" horiz-adv-x="719" 
d="M651 -214h-79v927h-425v-927h-79v1000h583v-1000z" />
    <glyph glyph-name="summation" unicode="&#x2211;" horiz-adv-x="615" 
d="M590 -214h-565v64l322 440l-309 431v65h540v-73h-437l300 -423l-319 -432h468v-72z" />
    <glyph glyph-name="minus" unicode="&#x2212;" 
d="M66 295h484v-78h-484v78z" />
    <glyph glyph-name="uni2215" unicode="&#x2215;" horiz-adv-x="161" 
d="M-161 11l439 756l44 -24l-439 -756z" />
    <glyph glyph-name="uni2219" unicode="&#x2219;" horiz-adv-x="308" 
d="M210 256q0 -24 -17 -40.5t-39 -16.5t-39 16.5t-17 40.5q0 22 16.5 38.5t39.5 16.5t39.5 -16.5t16.5 -38.5z" />
    <glyph glyph-name="radical" unicode="&#x221a;" horiz-adv-x="504" 
d="M514 786l-210 -1000h-76l-161 334l-47 -23l-29 61l112 53l151 -317l183 892h77z" />
    <glyph glyph-name="infinity" unicode="&#x221e;" horiz-adv-x="760" 
d="M662 255q0 40 -21.5 65t-60.5 25q-12 0 -23.5 -3t-24 -9.5t-21.5 -11.5t-22.5 -16.5t-19 -16.5t-20 -18.5t-16.5 -15.5q29 -26 45.5 -40t47 -29.5t57.5 -15.5q37 0 58 24t21 62zM347 254q-95 90 -151 90q-37 0 -58 -26t-21 -63q0 -39 22 -62.5t61 -23.5q62 0 147 85z
M727 258q0 -70 -41 -116t-109 -46q-53 0 -96.5 28.5t-90.5 78.5q-2 -2 -16 -15.5t-17.5 -16.5t-16 -14t-17 -14.5t-16.5 -12t-19 -11.5t-18.5 -8.5t-21 -7.5t-21.5 -4t-24 -2q-68 0 -110 45t-42 114q0 68 41 113.5t108 45.5q38 0 75 -19t59 -38.5t56 -55.5q36 39 55 56.5
t56 37.5t75 20q68 0 109.5 -45t41.5 -113z" />
    <glyph glyph-name="integral" unicode="&#x222b;" horiz-adv-x="559" 
d="M424 729q0 -17 -11.5 -27.5t-29.5 -10.5t-28 12t-16 24t-13 12q-31 0 -31 -104q0 -20 1 -47t1 -31v-560q0 -210 -127 -210q-28 0 -50 13.5t-22 40.5q0 15 11 25.5t27 10.5q14 0 23 -7t12.5 -16t8.5 -16t11 -7q29 0 29 100v634q0 37 1.5 61.5t8 57.5t19.5 53t37.5 34.5
t58.5 14.5q28 0 53.5 -14.5t25.5 -42.5z" />
    <glyph glyph-name="approxequal" unicode="&#x2248;" 
d="M522 421h51q-7 -62 -39.5 -104t-91.5 -42q-41 0 -142 37q-95 35 -129 35q-30 0 -49.5 -22.5t-25.5 -54.5h-52q7 63 39 105.5t91 42.5q49 0 140 -36t133 -36q60 0 75 75zM521 236h52q-7 -63 -39.5 -105t-91.5 -42q-43 0 -142 37q-95 35 -129 35q-30 0 -49.5 -22.5
t-25.5 -54.5h-52q7 63 39.5 106t90.5 43q49 0 140 -36q89 -36 133 -36q59 0 74 75z" />
    <glyph glyph-name="notequal" unicode="&#x2260;" 
d="M543 114h-287l-76 -147l-63 33l60 114h-141v72h179l65 127h-244v72h283l77 148l63 -33l-61 -115h145v-72h-183l-66 -127h249v-72z" />
    <glyph glyph-name="lessequal" unicode="&#x2264;" 
d="M562 119l-508 184v75l508 186v-77l-408 -147l408 -144v-77zM562 7h-508v72h508v-72z" />
    <glyph glyph-name="greaterequal" unicode="&#x2265;" 
d="M562 303l-508 -184v77l409 144l-409 147v77l508 -186v-75zM562 7h-508v72h508v-72z" />
    <glyph glyph-name="lozenge" unicode="&#x25ca;" horiz-adv-x="593" 
d="M505 356l-173 -391h-73l-171 391l171 391h73zM428 356l-132 315l-131 -315l131 -315z" />
    <glyph glyph-name="uniF8FF" unicode="&#xf8ff;" horiz-adv-x="512" 
d="M0 718h512v-718h-512v718zM50 50h412v617h-412v-617zM383 478q0 -65 -63 -120q-35 -31 -42 -51t-7 -73h-46q-2 14 -2 31q0 37 12.5 65.5t48.5 61.5q48 44 48 82q0 35 -22.5 60t-53.5 25q-70 0 -82 -95l-50 8q6 67 41 102t94 35q54 0 89 -36t35 -95zM222 117v67h56v-67
h-56z" />
    <glyph glyph-name="grave.cap" horiz-adv-x="358" 
d="M78 965l84 38l119 -164l-50 -28z" />
    <glyph glyph-name="acute.cap" horiz-adv-x="358" 
d="M197 1003l84 -38l-153 -154l-50 28z" />
    <glyph glyph-name="circumflex.cap" horiz-adv-x="470" 
d="M78 863l156 133l158 -133l-58 -45l-100 85l-99 -85z" />
    <glyph glyph-name="caron.cap" horiz-adv-x="470" 
d="M78 951l58 45l100 -85l99 85l57 -45l-156 -133z" />
    <glyph glyph-name="caron.alt" horiz-adv-x="358" 
d="M162 752l87 -17l-99 -188l-55 16z" />
    <glyph glyph-name="tilde.cap" horiz-adv-x="506" 
d="M381 967l47 -38q-16 -38 -44.5 -59.5t-61.5 -21.5q-25 0 -74.5 22.5t-70.5 22.5q-29 0 -50 -46l-49 39q46 79 102 79q32 0 82 -23t63 -23q31 0 56 48z" />
    <glyph glyph-name="dieresis.cap" horiz-adv-x="467" 
d="M189 910q0 -23 -15.5 -38.5t-38.5 -15.5t-38.5 15.5t-15.5 38.5q0 22 15 38t39 16q23 0 38.5 -15.5t15.5 -38.5zM386 910q0 -22 -15 -38t-39 -16q-23 0 -38.5 15.5t-15.5 38.5t15.5 38.5t38.5 15.5t38.5 -15.5t15.5 -38.5z" />
    <glyph glyph-name="macron.cap" horiz-adv-x="499" 
d="M79 941h342v-68h-342v68z" />
    <glyph glyph-name="breve.cap" horiz-adv-x="485" 
d="M79 975h69q26 -68 95 -68t95 68h69q-9 -62 -54.5 -99t-109.5 -37q-62 0 -109.5 38.5t-54.5 97.5z" />
    <glyph glyph-name="ring.cap" horiz-adv-x="350" 
d="M273 909q0 -41 -28 -69.5t-69 -28.5t-69.5 29t-28.5 69q0 39 29 68t69 29t68.5 -29t28.5 -68zM176 861q20 0 33.5 13.5t13.5 34.5q0 20 -13.5 33.5t-34.5 13.5q-20 0 -33.5 -13.5t-13.5 -33.5q0 -21 14 -34.5t34 -13.5z" />
    <glyph glyph-name="hungarumlaut.cap" horiz-adv-x="467" 
d="M147 1015l76 -14l-95 -159l-40 11zM304 1015l76 -14l-95 -159l-40 11z" />
    <glyph glyph-name="dotaccent.cap" horiz-adv-x="358" 
d="M233 921q0 -23 -15.5 -38.5t-38.5 -15.5t-38.5 15.5t-15.5 38.5t15.5 38.5t38.5 15.5t38.5 -15t15.5 -39z" />
    <glyph glyph-name="commaaccent" horiz-adv-x="330" 
d="M96 -274v48q31 5 49 25.5t18 53.5h-47v90h102v-84q0 -53 -32 -89.5t-90 -43.5z" />
    <glyph glyph-name="commaaccent.alt" horiz-adv-x="330" 
d="M234 798v-48q-31 -4 -49 -25t-18 -54h47v-90h-102v85q0 53 32 89t90 43z" />
    </font>
</defs>
</svg>
